Ссылка на приватное зеркало всего за 1$. Внимание количество ограничено!!!

iTunes

1+1

iTunes

мы

WEB-DL

1

iTunes

Чернобыль

iTunes

Ральф против интернета

Лицензия

ПШазам

Лицензия

Оно 2

Лицензия

30
pack

Вам бонус

ВАЖНО

!!Акция!!

Alien_RageХит недели

RePack

Resident Evil 21

ИГРА 18+

pack

RePack

jed

!!Акция!!

Alien_Rage

RePack

fifa19

RePack

Assassins Creed: Odyssey

RePack

NEED FOR SPEED™ PAYBACK

3 сезон

9 сезон

Бесстыжие 9 сезон

Все сериалы

все сериалы на PB.wtf

RePack

FAR CRY 5
Ребята, катастрофически не хватает 1900р. для оплаты серверов за Октябрь (всвязи с блокировками трафик упал в 3 раза), 1-2р., выручайте.
  

Зло / Malicious (Майкл Уинник) [2018, ужасы, триллер, WEB-DLRip] DUB [iTunes] pb.wtf

Зло через торрент pb.wtf

Раздают: 2 [ 14 KB/s ]
Размер: 1.44 GB | Добавлен: 1 год 1 мес. назад | Торрент скачан:803 раза
Скачать  

19-10-2018 12:20 Зло Скачать торрент  

Зло / Malicious«Его время пришло»
Год выпуска: 2018
Страна: США
Жанр: ужасы, триллер
Продолжительность: 01:27:09
Перевод: Дублированный | iTunes
Субтитры: отсутствуют

Режиссер: Майкл Уинник

rating

В ролях:

Бояна Новакович, Джош Стюарт, Делрой Линдо, Мелисса Болона, Ивет Йейтс, Жаклин Флеминг, Люк Эдвардс, Бен ВандерМей, Джой Кейт Лосон, Бэйли МиКелл Копертуэйт

Описание:

Молодой преподаватель Адам и его жена Лиза ожидают пополнения в семействе. В один миг идиллия счастливой пары рушится. Они сталкиваются с неведомым злом, которое превращает их жизнь в ад.

В надежде избавиться от преследующего их ужаса Адам умоляет о помощи парапсихолога Кларка. Приступив работе, Кларк осознает, что зловещая сущность, с которой они столкнулись, намного опаснее, чем он предполагал. И тогда супругам открывается страшная правда об этом кошмаре.

Качество: WEB-DLRip
Формат: AVI

Видео: Xvid 73, 720x304, ~1969 kbps, 25,000 fps
Аудио: русский, AC3, 5.1 ch, 48 kHz, 384 kbps | iTunes
скриншот  скриншот  скриншот  скриншот  
General
Полное имя : F:TorrentZlo2018WEB-DLRip.avi
Формат : AVI
Формат/Информация : Audio Video Interleave
Профиль формата : OpenDML
Размер файла : 1.44 GiB
Продолжительность : 1 h 27 min
Общий поток : 2 365 kb/s
Программа кодирования : XviD4PSP 6.0 / 54.27.101

Video
Идентификатор : 0
Формат : MPEG-4 Visual
Профиль формата : Advanced Simple@L5
Настройки формата : BVOP2 / Custom Matrix
Параметр BVOP формата : 2
Параметр QPel формата : No
Параметр GMC формата : No warppoints
Параметр матрицы формата : Custom
Идентификатор кодека : XVID
Идентификатор кодека/Подсказка : XviD
Продолжительность : 1 h 27 min
Битрейт : 1 969 kb/s
Ширина : 720 pixels
Высота : 304 pixels
Соотношение сторон : 2.35:1
Частота кадров : 25.000 FPS
Цветовое пространство : YUV
Субдискретизация насыщенности : 4:2:0
Битовая глубина : 8 bits
Тип развёртки : Progressive
Метод сжатия : Lossy
Бит/(Пиксели*Кадры) : 0.360
Размер потока : 1.20 GiB (83%)
Библиотека кодирования : XviD 73

Audio
Идентификатор : 1
Формат : AC-3
Формат/Информация : Audio Coding 3
Идентификатор кодека : 2000
Продолжительность : 1 h 27 min
Вид битрейта : Constant
Битрейт : 384 kb/s
Каналы : 6 channels
Расположение каналов : Front: L C R, Side: L R, LFE
Частота : 48.0 kHz
Частота кадров : 31.250 FPS (1536 SPF)
Битовая глубина : 16 bits
Метод сжатия : Lossy
Размер потока : 239 MiB (16%)
Выравнивание : Aligned on interleaves
Продолжительность промежутка : 32 ms (0.80 video frame)
pb.wtf



Скачать Зло через торрент http://img11.lostpic.net/2018/08/16/392de4bb0b4ef6f6f1830119de30e16d.jpg Скачать фильм Зло через торрент бесплантно в хорошем качестве Описание: Молодой преподаватель Адам и его жена Лиза ожидают пополнения в семействе. В один миг идиллия счастливой пары рушится. Они ... 9.5 10 17
Торрент: Зарегистрирован [2018-10-19 12:20] · скачан: 803 раз
Статус: √ проверено
Размер: 1.44 GB
Как cкачать? Как скачать Зло через торрент | qTorrent

% Раздел Тема Автор DL S | L
Фильмы 2018 [DVDrip, WEB-DLRip, HDrip] (DUB, MVO) [ 1.64 GB ] Зло / Malicious [2018 WEB-DLRip-AVC] bober100 Скачать
6 | 0
Фильмы 2018 [DVDrip, WEB-DLRip, HDrip] (DUB, MVO) [ 745 MB ] Зло / Malicious [2018 WEB-DLRip] bober100 Скачать
1 | 0
Фильмы (WEB-DL 720p, 1080p) [ 3.23 GB ] Зло / Malicious [2018 WEB-DL 1080p] -Lexx- Скачать
1 | 0


Последний раз редактировалось: bober100 (2018-10-20 01:20), всего редактировалось 1 раз

28-11-2019 20:33  

Отключить всю рекламу на сайте

28-10-2018 03:43 Зло Скачать торрент  

на разок вполне годноpb.wtf



    Дорогой пользователь! Огромная просьба, поблагодарите релизера, оцените раздачу и оставьте свои комментарий, если Вы скачали Зло через торрент бесплатно! Внесите свою лепту в развитие PiratBit!
    Комментировать посты могут только пользователи прошедшие не сложную регистрацию
    Показать сообщения:    

    Зло через торрент
    Скачать бесплатно Зло
    Зло скачать торрент
    Зло смотреть онлайн
    Cкачать фильм Зло бесплатно
    Зло скачать торрент в хорошем качестве
    Зло смотреть онлайн бесплатно в хорошем качестве


    Вы не можете начинать темы
    Вы не можете отвечать на сообщения
    Вы не можете редактировать свои сообщения
    Вы не можете удалять свои сообщения
    Вы не можете голосовать в опросах
    Вы не можете прикреплять файлы к сообщениям
    Вы можете скачивать файлы