Ссылка на приватное зеркало всего за 1$. Внимание количество ограничено!!!

OK

1+1

iTunes

мы

OK

1

WEB-DLRip

Джокер

Пифагор

Ведьмак / The Witcher сериал

Лицензия

ПШазам

ОК

Оно 2

iTunes

30
pack

Вам бонус

ВАЖНО

!!Акция!!

Alien_RageХит недели

RePack

Resident Evil 21

ИГРА 18+

pack

RePack

jed

RePack

fifa19

RePack

Assassins Creed: Odyssey

RePack

NEED FOR SPEED™ PAYBACK

4 сезон

9 сезон

Бесстыжие 9 сезон

Все сериалы

все сериалы на PB.wtf

RePack

FAR CRY 5
  

Пациент Зеро / Нулевой пациент / Patient Zero (Штефан Руцовицки) [2018, Ужасы, боевик, драма, BDRip 1080p] MVO [Официальный звук] pb.wtf

Пациент Зеро через торрент pb.wtf

Размер: 8.04 GB | Добавлен: 1 год 3 мес. назад | Торрент скачан:66 раз
Скачать  

19-10-2018 13:42 Пациент Зеро Скачать торрент  

Пациент Зеро / Нулевой пациент / Patient Zero
Год выпуска: 2018
Страна: Великобритания
Жанр: Ужасы, боевик, драма
Продолжительность: 01:29:29
Перевод: Профессиональный многоголосый | Официальный звук
Субтитры: отсутствуют

Режиссер: Штефан Руцовицки

rating

В ролях:

Натали Дормер, Мэтт Смит, Стэнли Туччи, Клайв Стэнден, Фредерик Шмидт, Агнесс Дейн, Джон Брэдли, Пиппа Беннетт-Уорнер, Колин МакФарлэйн, Дильяна Буклиева

Описание:

По Земле прокатился вирус, в результате которого большая часть населения превратилась в кровожадных и жестоких безумцев или, иными словами, в «инфицированных». Цивилизация погружается в хаос, человечество стоит на грани вымирания. Правда, некоторые люди имеют особый дар — понимать речь инфицированных и разговаривать с ними. Одним из немногих, кто наделен такой способностью, оказывается доктор Морган. Его жена тоже заражена. Морган решает найти так называемого пациента Зеро, с помощью которого можно создать антивирус и спасти человечество.

Качество: BDRip 1080p
Формат: MKV

Видео: h.264,12.4 Mb/s, 1920x800
Аудио#1: Русский (AC3, 2 ch, 448 Кбит/с)
скриншот  скриншот  скриншот  

Общее
Уникальный идентификатор : 181743634457812988804991032475000623022 (0x88BA8CFFF1DB4BBCB43C239744D9CFAE)
Полное имя : D:\Patient.Zero.2O18.Pof.BDRip.1O8Op_KOSHARA.mkv
Формат : Matroska
Версия формата : Version 2
Размер файла : 8,04 Гбайт
Продолжительность : 1 ч. 29 м.
Режим общего битрейта : Переменный
Общий поток : 12,9 Мбит/сек
Дата кодирования : UTC 2018-10-19 07:30:54
Программа кодирования : mkvmerge v8.3.0 ('Over the Horizon') 64bit
Библиотека кодирования : libebml v1.3.1 + libmatroska v1.4.2

Видео
Идентификатор : 1
Формат : AVC
Формат/Информация : Advanced Video Codec
Профиль формата : High@L4.1
Параметр CABAC формата : Да
Параметр RefFrames формата : 4 кадра
Идентификатор кодека : V_MPEG4/ISO/AVC
Продолжительность : 1 ч. 29 м.
Вид битрейта : Переменный
Битрейт : 12,4 Мбит/сек
Максимальный битрейт : 13,5 Мбит/сек
Ширина : 1920 пикселей
Высота : 800 пикселей
Соотношение сторон : 2,40:1
Режим частоты кадров : Постоянный
Частота кадров : 23,976 (24000/1001) кадра/сек
Стандарт вещания : Component
Цветовое пространство : YUV
Субдискретизация насыщенности : 4:2:0
Битовая глубина : 8 бит
Тип развёртки : Прогрессивная
Бит/(Пиксели*Кадры) : 0.330
Размер потока : 7,60 Гбайт (95%)
Default : Да
Forced : Нет
Цветовой диапазон : Limited
Основные цвета : BT.709
Характеристики трансфера : BT.709
Коэффициенты матрицы : BT.709

Аудио
Идентификатор : 2
Формат : AC-3
Формат/Информация : Audio Coding 3
Расширение режима : CM (complete main)
Параметр Endianness формата : Big
Идентификатор кодека : A_AC3
Продолжительность : 1 ч. 29 м.
Вид битрейта : Постоянный
Битрейт : 448 Кбит/сек
Каналы : 2 канала
Расположение каналов : Front: L R
Частота : 48,0 КГц
Частота кадров : 31,250 кадров/сек (1536 spf)
Метод сжатия : С потерями
Размер потока : 287 Мбайт (3%)
Default : Да
Forced : Нет

pb.wtf



Скачать Пациент Зеро через торрент https://c.radikal.ru/c17/1808/46/aa0975d24d90.jpg Скачать фильм Пациент Зеро через торрент бесплантно в хорошем качестве Описание: По Земле прокатился вирус, в результате которого большая часть населения превратилась в кровожадных и жестоких безумцев или, ... 10 10 2
Торрент: Зарегистрирован [2018-10-19 13:42] · скачан: 66 раз
Статус: # сомнительно
Размер: 8.04 GB
Как cкачать? Как скачать Пациент Зеро через торрент | qTorrent

% Раздел Тема Автор DL S | L
Фильмы [HD 720p, 1080p] (Хороший звук DUB, MVO) [ 3.41 GB ] Пациент Зеро / Нулевой пациент / Patient Zero [2018 BDRip 720p] MVO [Jaskier] bober100 Скачать
1 | 0
Фильмы 2018 [DVDrip, WEB-DLRip, HDrip] (DUB, MVO) [ 1.46 GB ] Пациент Зеро / Нулевой пациент / Patient Zero [2018 BDRip] MVO [Jaskier] bober100 Скачать
1 | 0
T Фильмы (Blu-ray, BD-Remux, HDDVD) [ 16.58 GB ] Пациент Зеро / Нулевой пациент / Patient Zero [2018 BD Remux 1080p] MVO [HDRezka Studio] bober100 Скачать
1 | 0
# Фильмы (мультфильмы) cо спонсором показа (Новинки AVI/MKV) [ 4.65 GB ] Пациент Зеро / Нулевой пациент / Patient Zero [2018 BDRip 720p] MVO [Официальный звук] bober100 Скачать
1 | 0
T Фильмы (мультфильмы) cо спонсором показа (Новинки AVI/MKV) [ 1.37 GB ] Пациент Зеро / Нулевой пациент / Patient Zero [2018 HDRip] MVO [Официальный звук] bober100 Скачать
1 | 0
T Фильмы 2018 [DVDrip, WEB-DLRip, HDrip] (DUB, MVO) [ 1.46 GB ] Пациент Зеро / Нулевой пациент / Patient Zero [2018 BDRip] MVO [HDRezka Studio] Twi7ter Скачать
2 | 0
T Фильмы (WEB-DL 720p, 1080p) [ 2.79 GB ] Пациент Зеро / Нулевой пациент / Patient Zero [2018 WEB-DL 720p] MVO [HDRezka Studio] bober100 Скачать
1 | 0

28-11-2019 20:33  

Отключить всю рекламу на сайте

06-01-2019 19:01 Пациент Зеро Скачать торрент  

Как фильмец? кто смотрел?pb.wtf



    Дорогой пользователь! Огромная просьба, поблагодарите релизера, оцените раздачу и оставьте свои комментарий, если Вы скачали Пациент Зеро через торрент бесплатно! Внесите свою лепту в развитие PiratBit!
    Комментировать посты могут только пользователи прошедшие не сложную регистрацию
    Показать сообщения:    

    Пациент Зеро через торрент
    Скачать бесплатно Пациент Зеро
    Пациент Зеро скачать торрент
    Пациент Зеро смотреть онлайн
    Cкачать фильм Пациент Зеро бесплатно
    Пациент Зеро скачать торрент в хорошем качестве
    Пациент Зеро смотреть онлайн бесплатно в хорошем качестве


    Вы не можете начинать темы
    Вы не можете отвечать на сообщения
    Вы не можете редактировать свои сообщения
    Вы не можете удалять свои сообщения
    Вы не можете голосовать в опросах
    Вы не можете прикреплять файлы к сообщениям
    Вы можете скачивать файлы