Ссылка на приватное зеркало всего за 1$. Внимание количество ограничено!!!

iTunes

iTunes

iTunes

1

iTunes

iTunes

iTunes

WEBRip

iTunes

30
pack

$ от Little Big

ВАЖНО

!!Акция!!

Alien_RageХит недели

RePack

Resident Evil 21

ИГРА 18+

pack

RePack

jed

!!Акция!!

Alien_Rage

RePack

fifa19

RePack

Assassins Creed: Odyssey

RePack

NEED FOR SPEED™ PAYBACK

4 сезон

9 сезон

Бесстыжие 9 сезон

Все сериалы

все сериалы на PB.wtf

RePack

FAR CRY 5
  

Игры в куклы: Хаос / Playing with Dolls: Havoc (Рене Перез) [2017, ужасы, триллер, BDRip 720p] MVO ["Синема УС"] pb.wtf

Игры в куклы: Хаос через торрент pb.wtf

Размер: 3.81 GB | Добавлен: 1 год 9 мес. назад | Торрент скачан:38 раз
Скачать  

19-10-2018 15:34 Игры в куклы: Хаос Скачать торрент  

Игры в куклы: Хаос / Playing with Dolls: HavocГод выпуска: 2017
Страна: США
Жанр: ужасы, триллер
Продолжительность: 01:18:54
Перевод: Любительский (многоголосый) | "Синема УС"
Субтитры: отсутствуют

Режиссер: Рене Перез

rating

В ролях:

Николь Старк, Кайл Кларк, Джон Скудери, Сторми Майя, Вильма Эллес, Роберт Королук, Мэлори Главан, Чейз Эйерс, Мэтт Дойл, Оливер Мюллер

Описание:

Монстр в железной маске вырывается на свободу и появляется в уютном домике, в котором семейная пара выясняет отношения: жена узнала про любовницу мужа...

Качество: BDRip 720p
Формат: MKV

Видео: h.264, 6 466 kb/s,1280x676
Аудио#1: Русский (AC3, 2 ch, 448 Кбит/с)
скриншот  скриншот  скриншот  

Общее
Уникальный идентификатор : 237973431011503272842170263558332279971 (0xB30804034CF0F312A1CE70A8087EECA3)
Полное имя : D:\Playing.with.dolls.hovac.2O17.P.BDRip.72Op_KOSHARA.mkv
Формат : Matroska
Версия формата : Version 2
Размер файла : 3,81 Гбайт
Продолжительность : 1 ч. 18 м.
Режим общего битрейта : Переменный
Общий поток : 6916 Кбит/сек
Дата кодирования : UTC 2018-10-18 15:55:16
Программа кодирования : mkvmerge v8.3.0 ('Over the Horizon') 64bit
Библиотека кодирования : libebml v1.3.1 + libmatroska v1.4.2

Видео
Идентификатор : 1
Формат : AVC
Формат/Информация : Advanced Video Codec
Профиль формата : High@L4.1
Параметр CABAC формата : Да
Параметр RefFrames формата : 4 кадра
Идентификатор кодека : V_MPEG4/ISO/AVC
Продолжительность : 1 ч. 18 м.
Вид битрейта : Переменный
Битрейт : 6466 Кбит/сек
Максимальный битрейт : 7500 Кбит/сек
Ширина : 1280 пикселей
Высота : 676 пикселей
Соотношение сторон : 1,893
Режим частоты кадров : Постоянный
Частота кадров : 23,976 (24000/1001) кадра/сек
Стандарт вещания : Component
Цветовое пространство : YUV
Субдискретизация насыщенности : 4:2:0
Битовая глубина : 8 бит
Тип развёртки : Прогрессивная
Бит/(Пиксели*Кадры) : 0.305
Размер потока : 3,49 Гбайт (92%)
Default : Да
Forced : Нет
Цветовой диапазон : Limited
Основные цвета : BT.709
Характеристики трансфера : BT.709
Коэффициенты матрицы : BT.709

Аудио
Идентификатор : 2
Формат : AC-3
Формат/Информация : Audio Coding 3
Расширение режима : CM (complete main)
Параметр Endianness формата : Big
Идентификатор кодека : A_AC3
Продолжительность : 1 ч. 18 м.
Вид битрейта : Постоянный
Битрейт : 448 Кбит/сек
Каналы : 2 канала
Расположение каналов : Front: L R
Частота : 48,0 КГц
Частота кадров : 31,250 кадров/сек (1536 spf)
Метод сжатия : С потерями
Размер потока : 253 Мбайт (6%)
Default : Да
Forced : Нет

pb.wtf



Скачать Игры в куклы: Хаос через торрент http://img10.lostpic.net/2018/10/19/d53c0e5a27e4f7b26186672caa472e04.jpg Скачать фильм Игры в куклы: Хаос через торрент бесплантно в хорошем качестве Описание: Монстр в железной маске вырывается на свободу и появляется в уютном домике, в котором семейная пара выясняет отношения: жена ... 10 10 2
Торрент: Зарегистрирован [2018-10-19 15:34] · скачан: 38 раз
Статус: # сомнительно
Размер: 3.81 GB
Как cкачать? Как скачать Игры в куклы: Хаос через торрент | qTorrent

% Раздел Тема Автор DL S | L
T Фильмы (мультфильмы) cо спонсором показа (Новинки AVI/MKV) [ 1.37 GB ] Игры в куклы: Хаос / Playing with Dolls: Havoc [2017 HDRip] MVO ["Синема УС"] bober100 Скачать
1 | 0

28-11-2019 20:33  

Отключить всю рекламу на сайте

    Дорогой пользователь! Огромная просьба, поблагодарите релизера, оцените раздачу и оставьте свои комментарий, если Вы скачали Игры в куклы: Хаос через торрент бесплатно! Внесите свою лепту в развитие PiratBit!
    Комментировать посты могут только пользователи прошедшие не сложную регистрацию
    Показать сообщения:    

    Игры в куклы: Хаос через торрент
    Скачать бесплатно Игры в куклы: Хаос
    Игры в куклы: Хаос скачать торрент
    Игры в куклы: Хаос смотреть онлайн
    Cкачать фильм Игры в куклы: Хаос бесплатно
    Игры в куклы: Хаос скачать торрент в хорошем качестве
    Игры в куклы: Хаос смотреть онлайн бесплатно в хорошем качестве


    Вы не можете начинать темы
    Вы не можете отвечать на сообщения
    Вы не можете редактировать свои сообщения
    Вы не можете удалять свои сообщения
    Вы не можете голосовать в опросах
    Вы не можете прикреплять файлы к сообщениям
    Вы можете скачивать файлы