Ссылка на приватное зеркало нашего сайта всего за 1$. Внимание количество ограничено!!!

2 сезон

iTunes

iTunes

1

iTunes

iTunes

iTunes

WEBRip

iTunes

30
pack

Вам бонус

ВАЖНО

!!Акция!!

Alien_RageХит недели

RePack

Horizon Zero Dawn

ИГРА 18+

pack

RePack

jed

!!Акция!!

Alien_Rage

RePack

fifa19

RePack

Assassins Creed: Odyssey

RePack

NEED FOR SPEED™ PAYBACK

4 сезон

9 сезон

Бесстыжие 9 сезон

Все сериалы

все сериалы на PB.wtf

RePack

FAR CRY 5
  

Убийственная мода / Deadly Runway / Fatal Fashion (Даг Кэмпбелл) [2018, драма, WEB-DL 720p] MVO ["Синема УС"] pb.wtf

Убийственная мода через торрент pb.wtf

Размер: 3.3 GB | Добавлен: 1 год 11 мес. назад | Торрент скачан:8 раз
Скачать  

19-10-2018 17:32 Убийственная мода Скачать торрент  

Убийственная мода / Deadly Runway / Fatal FashionГод выпуска: 2018
Страна: США
Жанр: драма
Продолжительность: 01:31:02
Перевод: Любительский (многоголосый) | "Синема УС"
Субтитры: отсутствуют

Режиссер: Даг Кэмпбелл

rating

В ролях:

Джошуа Хоффман Линси Годфри Джина Хираидзуми Т.Дж. Хобан Хезер Хопкинс Стиви Джонсон Джейми Лунер Эллен Мишель Монохан Захари Роозен Пол Тувех

Описание:

Нездоровая страсть к начинающей модели сводит популярного фэшн-фотографа с ума, заставляя убивать всех, кто стоит на пути преступной любви.

Качество: WEB-DL 720p
Формат: MKV

Видео: h264, 4 811 kb/s, 1280x720
Аудио#1: Русский, (AC3, 2 ch, 384 Кбит/с)
скриншот  скриншот  скриншот  

Общее
Уникальный идентификатор : 195348224325628982271905714471272262462 (0x92F6B31132840B0A8BD757B6F8B92B3E)
Полное имя : D:\Deadly.Runway.2O18.P.WEB-DL.72Op_KOSHARA.mkv
Формат : Matroska
Версия формата : Version 2
Размер файла : 3,30 Гбайт
Продолжительность : 1 ч. 31 м.
Режим общего битрейта : Переменный
Общий поток : 5196 Кбит/сек
Дата кодирования : UTC 2018-10-18 15:49:38
Программа кодирования : mkvmerge v8.3.0 ('Over the Horizon') 64bit
Библиотека кодирования : libebml v1.3.1 + libmatroska v1.4.2

Видео
Идентификатор : 1
Формат : AVC
Формат/Информация : Advanced Video Codec
Профиль формата : High@L4.1
Параметр CABAC формата : Да
Параметр RefFrames формата : 4 кадра
Идентификатор кодека : V_MPEG4/ISO/AVC
Продолжительность : 1 ч. 31 м.
Вид битрейта : Переменный
Битрейт : 4811 Кбит/сек
Максимальный битрейт : 5500 Кбит/сек
Ширина : 1280 пикселей
Высота : 720 пикселей
Соотношение сторон : 16:9
Режим частоты кадров : Постоянный
Частота кадров : 23,976 (24000/1001) кадра/сек
Стандарт вещания : Component
Цветовое пространство : YUV
Субдискретизация насыщенности : 4:2:0
Битовая глубина : 8 бит
Тип развёртки : Прогрессивная
Бит/(Пиксели*Кадры) : 0.213
Размер потока : 2,99 Гбайт (91%)
Default : Да
Forced : Нет
Цветовой диапазон : Limited
Основные цвета : BT.709
Характеристики трансфера : BT.709
Коэффициенты матрицы : BT.709

Аудио
Идентификатор : 2
Формат : AC-3
Формат/Информация : Audio Coding 3
Расширение режима : CM (complete main)
Параметр Endianness формата : Big
Идентификатор кодека : A_AC3
Продолжительность : 1 ч. 31 м.
Вид битрейта : Постоянный
Битрейт : 384 Кбит/сек
Каналы : 2 канала
Расположение каналов : Front: L R
Частота : 48,0 КГц
Частота кадров : 31,250 кадров/сек (1536 spf)
Метод сжатия : С потерями
Размер потока : 250 Мбайт (7%)
Default : Да
Forced : Нет

pb.wtf



Скачать Убийственная мода через торрент http://img10.lostpic.net/2018/10/19/db117d454ec47cb16b7d211d8055d35b.jpg Скачать фильм Убийственная мода через торрент бесплантно в хорошем качестве Описание: Нездоровая страсть к начинающей модели сводит популярного фэшн-фотографа с ума, заставляя убивать всех, кто стоит на пути ... 10 10 2
Торрент: Зарегистрирован [2018-10-19 17:32] · скачан: 8 раз
Статус: T временная
Размер: 3.3 GB
Как cкачать? Как скачать Убийственная мода через торрент | qTorrent

% Раздел Тема Автор DL S | L
T Фильмы (мультфильмы) cо спонсором показа (Новинки AVI/MKV) [ 1.37 GB ] Убийственная мода / Deadly Runway / Fatal Fashion [2018 WEB-DLRip] MVO ["Синема УС"] bober100 Скачать
1 | 0

28-11-2019 20:33  

Отключить всю рекламу на сайте

19-10-2018 18:22 Убийственная мода Скачать торрент  

а в чём в принципе "нездоровость" - в том, что "начинающей модели" обычно 13-14 лет?pb.wtf



    Дорогой пользователь! Огромная просьба, поблагодарите релизера, оцените раздачу и оставьте свои комментарий, если Вы скачали Убийственная мода через торрент бесплатно! Внесите свою лепту в развитие PiratBit!
    Комментировать посты могут только пользователи прошедшие не сложную регистрацию
    Показать сообщения:    

    Убийственная мода через торрент
    Скачать бесплатно Убийственная мода
    Убийственная мода скачать торрент
    Убийственная мода смотреть онлайн
    Cкачать фильм Убийственная мода бесплатно
    Убийственная мода скачать торрент в хорошем качестве
    Убийственная мода смотреть онлайн бесплатно в хорошем качестве


    Вы не можете начинать темы
    Вы не можете отвечать на сообщения
    Вы не можете редактировать свои сообщения
    Вы не можете удалять свои сообщения
    Вы не можете голосовать в опросах
    Вы не можете прикреплять файлы к сообщениям
    Вы можете скачивать файлы