Ссылка на приватное зеркало всего за 1$. Внимание количество ограничено!!!

OK

1+1

iTunes

мы

OK

1

WEB-DLRip

Джокер

Пифагор

Ведьмак / The Witcher сериал

iTunes

ПШазам

ОК

Оно 2

iTunes

30
pack

Вам бонус

ВАЖНО

!!Акция!!

Alien_RageХит недели

RePack

Resident Evil 21

ИГРА 18+

pack

RePack

jed

RePack

fifa19

RePack

Assassins Creed: Odyssey

RePack

NEED FOR SPEED™ PAYBACK

4 сезон

9 сезон

Бесстыжие 9 сезон

Все сериалы

все сериалы на PB.wtf

RePack

FAR CRY 5
  

Кондитер / The Cakemaker (Офир Рауль Грайзер) [2017, драма, BDRip 720p] MVO ["Синема УС"] pb.wtf

Кондитер через торрент pb.wtf

Размер: 5.33 GB | Добавлен: 1 год 3 мес. назад | Торрент скачан:16 раз
Скачать  

19-10-2018 18:06 Кондитер Скачать торрент  

Кондитер / The CakemakerГод выпуска: 2017
Страна: Израиль, Германия
Жанр: драма
Продолжительность: 01:51:48
Перевод: Любительский (многоголосый) | "Синема УС"
Субтитры: отсутствуют

Режиссер: Офир Рауль Грайзер

rating

В ролях:

Тим Калькхоф, Сара Адлер, Рой Миллер, Зохар Штраусс, Сандра Саде, Тамир Бен Иегуда, Стефани Стремлер, Тагель Элиягу, Элиэзер Шимон, Гал Гонен

Описание:

Томас, молодой кондитер из Германии, внезапно теряет связь со своим женатым любовником из Израиля, который погиб в автомобильной аварии. И тогда герой отправляется в Иерусалим найти его жену и сына, чтобы получить ответы на свои вопросы.

Качество: BDRip 720p
Формат: MKV

Видео: h.264,6 373 kb/s, 1280x536
Аудио#1: Русский (AC3, 2 ch, 448 Кбит/с)
скриншот  скриншот  скриншот  

Общее
Уникальный идентификатор : 180146432155578713775195808357527856467 (0x8786F0D8AE6E0ACCB5A15048AFDC2553)
Полное имя : D:\The.cakemaker.2O18.P.BDRip.72Op_KOSHARA.mkv
Формат : Matroska
Версия формата : Version 2
Размер файла : 5,33 Гбайт
Продолжительность : 1 ч. 51 м.
Режим общего битрейта : Переменный
Общий поток : 6823 Кбит/сек
Дата кодирования : UTC 2018-10-18 14:17:50
Программа кодирования : mkvmerge v8.3.0 ('Over the Horizon') 64bit
Библиотека кодирования : libebml v1.3.1 + libmatroska v1.4.2

Видео
Идентификатор : 1
Формат : AVC
Формат/Информация : Advanced Video Codec
Профиль формата : High@L4.1
Параметр CABAC формата : Да
Параметр RefFrames формата : 4 кадра
Идентификатор кодека : V_MPEG4/ISO/AVC
Продолжительность : 1 ч. 51 м.
Вид битрейта : Переменный
Битрейт : 6373 Кбит/сек
Максимальный битрейт : 7200 Кбит/сек
Ширина : 1280 пикселей
Высота : 536 пикселей
Соотношение сторон : 2,40:1
Режим частоты кадров : Постоянный
Частота кадров : 23,976 (24000/1001) кадра/сек
Стандарт вещания : Component
Цветовое пространство : YUV
Субдискретизация насыщенности : 4:2:0
Битовая глубина : 8 бит
Тип развёртки : Прогрессивная
Бит/(Пиксели*Кадры) : 0.379
Размер потока : 4,87 Гбайт (91%)
Default : Да
Forced : Нет
Цветовой диапазон : Limited
Основные цвета : BT.709
Характеристики трансфера : BT.709
Коэффициенты матрицы : BT.709

Аудио
Идентификатор : 2
Формат : AC-3
Формат/Информация : Audio Coding 3
Расширение режима : CM (complete main)
Параметр Endianness формата : Big
Идентификатор кодека : A_AC3
Продолжительность : 1 ч. 51 м.
Вид битрейта : Постоянный
Битрейт : 448 Кбит/сек
Каналы : 2 канала
Расположение каналов : Front: L R
Частота : 48,0 КГц
Частота кадров : 31,250 кадров/сек (1536 spf)
Метод сжатия : С потерями
Размер потока : 358 Мбайт (7%)
Default : Да
Forced : Нет

pb.wtf



Скачать Кондитер через торрент https://d.radikal.ru/d33/1810/f5/f3ee668411fb.jpg Скачать фильм Кондитер через торрент бесплантно в хорошем качестве Описание: Томас, молодой кондитер из Германии, внезапно теряет связь со своим женатым любовником из Израиля, который погиб в автомобильной ... 5.5 10 4
Торрент: Зарегистрирован [2018-10-19 18:06] · скачан: 16 раз
Статус: # сомнительно
Размер: 5.33 GB
Как cкачать? Как скачать Кондитер через торрент | qTorrent

% Раздел Тема Автор DL S | L
T Фильмы (мультфильмы) cо спонсором показа (Новинки AVI/MKV) [ 1.45 GB ] Кондитер / The Cakemaker [2017 HDRip] MVO ["Синема УС"] bober100 Скачать
1 | 0

28-11-2019 20:33  

Отключить всю рекламу на сайте

19-10-2018 18:21 Кондитер Скачать торрент  

едет в другую страну, чтобы насрать в душу вдове, сообщив, что её погибший муж был - ну конечно, чего ещё ждать от .pb.wtf



19-10-2018 19:13 Кондитер Скачать торрент  

это что кино про гомиков?pb.wtf



19-10-2018 23:30 Кондитер Скачать торрент  

sergunka писал(а):

едет в другую страну, чтобы насрать в душу вдове, сообщив, что её погибший муж был - ну конечно, чего ещё ждать от .

pb.wtf



20-10-2018 13:51 Кондитер Скачать торрент  

pb.wtf



20-10-2018 15:45 Кондитер Скачать торрент  

Нет слов... и здесь про пидарасов... pb.wtf



    Дорогой пользователь! Огромная просьба, поблагодарите релизера, оцените раздачу и оставьте свои комментарий, если Вы скачали Кондитер через торрент бесплатно! Внесите свою лепту в развитие PiratBit!
    Комментировать посты могут только пользователи прошедшие не сложную регистрацию
    Показать сообщения:    

    Кондитер через торрент
    Скачать бесплатно Кондитер
    Кондитер скачать торрент
    Кондитер смотреть онлайн
    Cкачать фильм Кондитер бесплатно
    Кондитер скачать торрент в хорошем качестве
    Кондитер смотреть онлайн бесплатно в хорошем качестве


    Вы не можете начинать темы
    Вы не можете отвечать на сообщения
    Вы не можете редактировать свои сообщения
    Вы не можете удалять свои сообщения
    Вы не можете голосовать в опросах
    Вы не можете прикреплять файлы к сообщениям
    Вы можете скачивать файлы