Anonymous, добрый вечер, присоединяйтесь к нам в Telegram!, здесь всегда актуальный адрес сайта, оперативная поддержка и многое другое!

>

5.6

iTunes

7.4

iTunes

7.9

MVO

1

7.7

1 сезон

6.8

iTunes

7.3

1 сезон

13

6.7

1 сезон

8.3

RePack

30

PREMIUM

pack

9.9

Лицензия

ВАЖНО

ИГРА 18+

pack

7.3

RePack

MK11

7.7

RePack

jed

7.8

RePack

fifa19

8.5

RePack

RDR2

RePack

NEED FOR SPEED™ PAYBACK

4 сезон

9 сезон

Бесстыжие 9 сезон

Все сериалы

все сериалы на PB.wtf

RePack

FAR CRY 5

Anonymous, добрый вечер, мы катастрофически не успеваем собрать деньги на оплату серверов, помогите нам пожалуйста 5,10,15р., для нас важна любая помощь . В качестве благодарности мы отключим Вам всю рекламу на сайте (укажите свой ник в строку Ваше имя)!

×
  
Magnet ссылка

Звоните ДиКаприо! / Сезон: 1 / Серии: 1-8 из 8 (Жора Крыжовников) [2018, комедия, драма, WEB-DL 1080p] pb.wtf

Звоните ДиКаприо! через торрент pb.wtf

Качают: 1 [ 0 KB/s ]
Размер: 13.21 GB | Добавлен: 2 года 10 мес. назад | Торрент скачан:537 раз
Смотреть онлайн Звоните ДиКаприо! | Скачать    Ребята, помогите собрать деньги на оплату серверов!!!

19-10-2018 21:24 Звоните ДиКаприо! Скачать торрент  

Звоните ДиКаприо! Год выпуска: 2018
Страна: Россия
Жанр: комедия, драма
Продолжительность: ~ 00:50:00 серия
Перевод: Не требуется
Субтитры: отсутствуют

Режиссер: Жора Крыжовников



В ролях:

Александр Петров (Егор Румянцев), Андрей Бурковский (Лев, брат Егора), Юлия Александрова, Юлия Хлынина, Александра Ревенко, Антон Васильев, Анна Невская, Яна Кошкина, Игорь Миркурбанов, Наталья Потапова, Данила Якушев, Маруся Климова

Описание:

История об отношениях и судьбах двух братьев. Егор Румянцев - звезда хитового сериала про врачей. Он слетает с катушек от успеха: срывает съемки, путается в любовных связях, всем врет. Румянцев чувствует себя неуязвимым и живет для себя, ни во что не ставя чувства других людей. Но в один миг его мир переворачивается. Он узнает, что у него ВИЧ.

Качество: WEB-DL 1080p
Формат: MKV

Видео: 1920x1080 at 23.976 fps, MPEG-4 AVC, ~5000 kbps avg
Аудио: Russian: 48 kHz, AC3, 2/0 (L,R) ch, ~192 kbps avg
скриншот  скриншот  скриншот  

Общее
Уникальный идентификатор : 239162182815649098910747612524203579339 (0xB3ECF6007D47CF89A3820F1EB68197CB)
Полное имя : D:\Zvonite.Dikaprio.2018.WEB-DL.(1080p).Getty\Zvonite.Dikaprio.e01.2018.WEB-DL.(1080p).Getty.mkv
Формат : Matroska
Версия формата : Version 4 / Version 2
Размер файла : 1,76 Гбайт
Продолжительность : 48 м. 58 с.
Режим общего битрейта : Постоянный
Общий поток : 5154 Кбит/сек
Название фильма : Zvonite.Dikaprio.e01.2018.WEB-DL.(1080p).Getty
Дата кодирования : UTC 2018-10-19 20:55:42
Программа кодирования : mkvmerge v7.8.0 ('River Man') 32bit built on Mar 27 2015 16:18:02
Библиотека кодирования : libebml v1.3.1 + libmatroska v1.4.2

Видео
Идентификатор : 1
Формат : AVC
Формат/Информация : Advanced Video Codec
Профиль формата : Baseline@L4
Параметр CABAC формата : Нет
Параметр RefFrames формата : 4 кадра
Параметр GOP формата : M=1, N=50
Идентификатор кодека : V_MPEG4/ISO/AVC
Продолжительность : 48 м. 58 с.
Вид битрейта : Постоянный
Битрейт : 5000 Кбит/сек
Ширина : 1920 пикселей
Высота : 1080 пикселей
Соотношение сторон : 16:9
Режим частоты кадров : Постоянный
Частота кадров : 25,000 кадров/сек
Стандарт вещания : PAL
Цветовое пространство : YUV
Субдискретизация насыщенности : 4:2:0
Битовая глубина : 8 бит
Тип развёртки : Прогрессивная
Бит/(Пиксели*Кадры) : 0.096
Размер потока : 1,70 Гбайт (96%)
Default : Да
Forced : Нет
Цветовой диапазон : Limited
Основные цвета : BT.709
Характеристики трансфера : BT.709
Коэффициенты матрицы : BT.709

Аудио
Идентификатор : 2
Формат : AC-3
Формат/Информация : Audio Coding 3
Расширение режима : CM (complete main)
Параметр Endianness формата : Big
Идентификатор кодека : A_AC3
Продолжительность : 48 м. 58 с.
Вид битрейта : Постоянный
Битрейт : 192 Кбит/сек
Каналы : 2 канала
Расположение каналов : Front: L R
Частота : 48,0 КГц
Частота кадров : 31,250 кадров/сек (1536 spf)
Метод сжатия : С потерями
Размер потока : 67,2 Мбайт (4%)
Default : Да
Forced : Нет

Когда раздача ведётся путём добавления новых серий, при каждом добавлении создётся новый торрент. Чтобы начать докачку новой серии, пользователям необходимо сделать следующее:
(1) остановить скачивание,
(2) удалить старый торрент у себя из клиента (старые серии удалять не надо),
(3) скачать новый торрент и запустить его у себя в клиенте вместо старого, при этом указать клиенту путь в старую папку, куда и должно происходить скачивание новых серий.
Ваш клиент при этом должен произвести хеширование (проверку) старой папки (если не производит сам - помогите ему сделать это), и будет докачивать только те серии, которых у вас ещё нет. Старые серии при этом не удаляются, а продолжают раздаваться!
Eсли вы уже удалили старые серии, то предотвратить повторную закачку старых серий можно, отжав галочку в соответсвующих местах при запуске нового торрента. По возможности, желательно не удалять старые серии как можно дольше, чтобы релизер не столько продолжал раздавать старые серии, а смог сконцентрироваться на новых.
pb.wtf



Скачать Звоните ДиКаприо! через торрент https://img10.lostpic.net/2018/10/19/f88c76b753b831325d02435667b47b94.jpg Скачать, смотреть онлайн Звоните ДиКаприо! бесплантно в хорошем качестве Описание: История об отношениях и судьбах двух братьев. Егор Румянцев - звезда хитового сериала про врачей. Он слетает с катушек от успеха: ... 9.9 10 30
Info! Золотая раздача, скачанное не засчитывается.
Торрент: Зарегистрирован [2018-11-30 21:56] · скачан: 537 раз
Статус: √ проверено
Размер: 13.21 GB
Как cкачать? Как скачать Звоните ДиКаприо! через торрент | UTorrent

% Раздел Тема Автор DL S | L
TNT serials [ 7.1 GB ] Звоните ДиКаприо! / Сезон: 1 / Серии: 1-8 из 8 [2018 WEB-DL 720p] bober100 Скачать
2 | 0
TNT serials [ 5.03 GB ] Звоните ДиКаприо! / Сезон: 1 / Серии: 1-8 из 8 + Фильм о Фильме [2018 WEB-DLRip] bober100 Скачать
2 | 0
TNT serials [ 4.84 GB ] Звоните ДиКаприо! / Сезон: 1 / Серии: 1-8 из 8 [2018 WEB-DLRip-AVC] - ExKinoRay Enigma2010 Скачать
1 | 0
TNT serials [ 4.6 GB ] Звоните ДиКаприо! / Сезон: 1 / Серии: 1-8 из 8 [2018 WEB-DLRip-AVC] bober100 Скачать
2 | 0


Последний раз редактировалось: bober100 (2018-11-29 04:23), всего редактировалось 1 раз

28-11-2019 20:33  

Отключить всю рекламу на сайте

    Дорогой пользователь! Огромная просьба, поблагодарите релизера, оцените раздачу и оставьте свои комментарий, если Вы скачали Звоните ДиКаприо! через торрент бесплатно!
    Комментировать посты могут только пользователи прошедшие не сложную регистрацию
    Показать сообщения:    

    Звоните ДиКаприо! через торрент
    Скачать бесплатно Звоните ДиКаприо!
    Звоните ДиКаприо! скачать торрент
    Звоните ДиКаприо! смотреть онлайн
    Cкачать фильм Звоните ДиКаприо! бесплатно
    Звоните ДиКаприо! скачать торрент в хорошем качестве
    Звоните ДиКаприо! смотреть онлайн бесплатно в хорошем качестве


    Вы не можете начинать темы
    Вы не можете отвечать на сообщения
    Вы не можете редактировать свои сообщения
    Вы не можете удалять свои сообщения
    Вы не можете голосовать в опросах
    Вы не можете прикреплять файлы к сообщениям
    Вы можете скачивать файлы