новый адрес
Ссылка на приватное зеркало всего за 1$. Внимание количество ограничено!!!

iTunes

1+1

iTunes

мы

WEB-DL

1

iTunes

Чернобыль

iTunes

Ральф против интернета

Лицензия

ПШазам

Лицензия

Оно 2

Лицензия

30
pack

Вам бонус

ВАЖНО

!!Акция!!

Alien_RageХит недели

RePack

Resident Evil 21

ИГРА 18+

pack

RePack

jed

!!Акция!!

Alien_Rage

RePack

fifa19

RePack

Assassins Creed: Odyssey

RePack

NEED FOR SPEED™ PAYBACK

3 сезон

9 сезон

Бесстыжие 9 сезон

Все сериалы

все сериалы на PB.wtf

RePack

FAR CRY 5
Ребята, катастрофически не хватает 1900р. для оплаты серверов за Октябрь (всвязи с блокировками трафик упал в 3 раза), 1-2р., выручайте.
  

Зло / Malicious (Майкл Уинник) [2018, ужасы, триллер, WEB-DLRip-AVC] DUB [iTunes] pb.wtf

Зло через торрент pb.wtf

Раздают: 4 [ 0 KB/s ]
Размер: 1.64 GB | Добавлен: 1 год 1 мес. назад | Торрент скачан:2109 раз
Скачать  

20-10-2018 01:23 Зло Скачать торрент  

Зло / Malicious«Его время пришло»
Год выпуска: 2018
Страна: США
Жанр: ужасы, триллер
Продолжительность: 01:27:09
Перевод: Дублированный | iTunes
Субтитры: Английские (полные, SDH)

Режиссер: Майкл Уинник

rating

В ролях:

Бояна Новакович, Джош Стюарт, Делрой Линдо, Мелисса Болона, Ивет Йейтс, Жаклин Флеминг, Люк Эдвардс, Бен ВандерМей, Джой Кейт Лосон, Бэйли МиКелл Копертуэйт

Описание:

Молодой преподаватель Адам и его жена Лиза ожидают пополнения в семействе. В один миг идиллия счастливой пары рушится. Они сталкиваются с неведомым злом, которое превращает их жизнь в ад.

В надежде избавиться от преследующего их ужаса Адам умоляет о помощи парапсихолога Кларка. Приступив работе, Кларк осознает, что зловещая сущность, с которой они столкнулись, намного опаснее, чем он предполагал. И тогда супругам открывается страшная правда об этом кошмаре.

Качество: WEB-DLRip-AVC
Формат: MKV

Видео: 1024x428 (2.40:1), 25,000 fps, x264 ~1 921 kbps avg, 0.175 bit/pixel
Аудио#1: 48 kHz, AC3 Dolby Digital, 3/2 (L,C,R,l,r) + LFE ch, ~384.00 kbps avg | RUS (iTunes)
Аудио#2: 48 kHz, AC3 Dolby Digital, 3/2 (L,C,R,l,r) + LFE ch, ~384.00 kbps avg | ENG
скриншот  скриншот  скриншот  скриншот  

Общее
Уникальный идентификатор : 27942842479120704329225262946309693105 (0x15059880334FD39E50A643C72F5CDEB1)
Полное имя : F:\OlLanDGroup\Malicious.2018.WEB-DLRip(AVC).OlLanDGroup.mkv
Формат : Matroska
Версия формата : Version 4 / Version 2
Размер файла : 1,64 Гбайт
Продолжительность : 1 ч. 27 м.
Общий поток : 2667 Кбит/сек
Название фильма : Malicious.2018 #TorpedoUK#
Дата кодирования : UTC 2018-10-20 00:40:36
Программа кодирования : mkvmerge v25.0.0 ('Prog Noir') 64-bit
Библиотека кодирования : libebml v1.3.6 + libmatroska v1.4.9

Видео
Идентификатор : 1
Формат : AVC
Формат/Информация : Advanced Video Codec
Профиль формата : High@L4.1
Параметр CABAC формата : Да
Параметр ReFrames формата : 10 кадров
Идентификатор кодека : V_MPEG4/ISO/AVC
Продолжительность : 1 ч. 27 м.
Битрейт : 1921 Кбит/сек
Ширина : 1024 пикселя
Высота : 428 пикселей
Соотношение сторон : 2,40:1
Режим частоты кадров : Постоянный
Частота кадров : 25,000 кадров/сек
Цветовое пространство : YUV
Субдискретизация насыщенности : 4:2:0
Битовая глубина : 8 бит
Тип развёртки : Прогрессивная
Бит/(Пиксели*Кадры) : 0.175
Размер потока : 1,17 Гбайт (71%)
Библиотека кодирования : x264 core 146 r2538 121396c
Настройки программы : cabac=1 / ref=10 / deblock=1:-3:-3 / analyse=0x3:0x113 / me=umh / subme=11 / psy=1 / psy_rd=0.97:0.05 / mixed_ref=1 / me_range=48 / chroma_me=1 / trellis=2 / 8x8dct=1 / cqm=0 / deadzone=21,11 / fast_pskip=1 / chroma_qp_offset=-3 / threads=6 / lookahead_threads=1 / sliced_threads=0 / nr=0 / decimate=1 / interlaced=0 / bluray_compat=0 / constrained_intra=0 / bframes=10 / b_pyramid=2 / b_adapt=2 / b_bias=0 / direct=3 / weightb=1 / open_gop=0 / weightp=2 / keyint=240 / keyint_min=24 / scenecut=40 / intra_refresh=0 / rc_lookahead=40 / rc=2pass / mbtree=0 / bitrate=1921 / ratetol=1.0 / qcomp=0.60 / qpmin=0 / qpmax=69 / qpstep=4 / cplxblur=20.0 / qblur=0.5 / vbv_maxrate=50000 / vbv_bufsize=62500 / nal_hrd=none / filler=0 / ip_ratio=1.40 / pb_ratio=1.30 / aq=1:1.00
Язык : English
Default : Да
Forced : Нет

Аудио #1
Идентификатор : 2
Формат : AC-3
Формат/Информация : Audio Coding 3
Расширение режима : CM (complete main)
Параметр Endianness формата : Big
Идентификатор кодека : A_AC3
Продолжительность : 1 ч. 27 м.
Вид битрейта : Постоянный
Битрейт : 384 Кбит/сек
Каналы : 6 каналов
Расположение каналов : Front: L C R, Side: L R, LFE
Частота : 48,0 КГц
Частота кадров : 31,250 кадров/сек (1536 spf)
Битовая глубина : 16 бит
Метод сжатия : С потерями
Размер потока : 239 Мбайт (14%)
Заголовок : DUB [iTunes]
Язык : Russian
Default : Да
Forced : Нет

Аудио #2
Идентификатор : 3
Формат : AC-3
Формат/Информация : Audio Coding 3
Расширение режима : CM (complete main)
Параметр Endianness формата : Big
Идентификатор кодека : A_AC3
Продолжительность : 1 ч. 27 м.
Вид битрейта : Постоянный
Битрейт : 384 Кбит/сек
Каналы : 6 каналов
Расположение каналов : Front: L C R, Side: L R, LFE
Частота : 48,0 КГц
Частота кадров : 31,250 кадров/сек (1536 spf)
Битовая глубина : 16 бит
Метод сжатия : С потерями
Размер потока : 239 Мбайт (14%)
Заголовок : [Original]
Язык : English
Default : Нет
Forced : Нет

Текст #1
Идентификатор : 4
Формат : UTF-8
Идентификатор кодека : S_TEXT/UTF8
Идентификатор кодека/Информация : UTF-8 Plain Text
Продолжительность : 1 ч. 27 м.
Битрейт : 41 бит/сек
Count of elements : 837
Размер потока : 26,5 Кбайт (0%)
Заголовок : Full
Язык : English
Default : Нет
Forced : Нет

Текст #2
Идентификатор : 5
Формат : UTF-8
Идентификатор кодека : S_TEXT/UTF8
Идентификатор кодека/Информация : UTF-8 Plain Text
Продолжительность : 1 ч. 27 м.
Битрейт : 46 бит/сек
Count of elements : 975
Размер потока : 29,8 Кбайт (0%)
Заголовок : SDH
Язык : English
Default : Нет
Forced : Нет

Меню
00:00:00.000 : en:Глава 1
00:07:42.720 : en:Глава 2
00:15:03.880 : en:Глава 3
00:22:09.880 : en:Глава 4
00:29:23.560 : en:Глава 5
00:36:51.360 : en:Глава 6
00:44:03.960 : en:Глава 7
00:51:30.600 : en:Глава 8
00:59:02.680 : en:Глава 9
01:06:19.680 : en:Глава 10
01:14:26.760 : en:Глава 11
01:21:36.960 : en:Глава 12

pb.wtf



Скачать Зло через торрент http://img11.lostpic.net/2018/08/16/392de4bb0b4ef6f6f1830119de30e16d.jpg Скачать фильм Зло через торрент бесплантно в хорошем качестве Описание: Молодой преподаватель Адам и его жена Лиза ожидают пополнения в семействе. В один миг идиллия счастливой пары рушится. Они ... 9.9 10 44
Info! Золотая раздача, скачанное не засчитывается.
Торрент: Зарегистрирован [2018-10-20 01:23] · скачан: 2 109 раз
Статус: √ проверено
Размер: 1.64 GB
Как cкачать? Как скачать Зло через торрент | qTorrent

% Раздел Тема Автор DL S | L
Фильмы 2018 [DVDrip, WEB-DLRip, HDrip] (DUB, MVO) [ 1.44 GB ] Зло / Malicious [2018 WEB-DLRip] bober100 Скачать
1 | 0
Фильмы 2018 [DVDrip, WEB-DLRip, HDrip] (DUB, MVO) [ 745 MB ] Зло / Malicious [2018 WEB-DLRip] bober100 Скачать
1 | 0
Фильмы (WEB-DL 720p, 1080p) [ 3.23 GB ] Зло / Malicious [2018 WEB-DL 1080p] -Lexx- Скачать
1 | 0

28-11-2019 20:33  

Отключить всю рекламу на сайте

20-10-2018 15:24 Зло Скачать торрент  

хороший кин из всей массы.идея стара,но испытал чувство удволетворённостиpb.wtf



22-10-2018 16:58 Зло Скачать торрент  

Норм кино. Мне понравилосьpb.wtf



25-10-2018 03:30 Зло Скачать торрент  

Проходите мимо товарищи. Фильм неинтереснвй, нелогичный. Снят абы как. Полное разочарованиеpb.wtf



    Дорогой пользователь! Огромная просьба, поблагодарите релизера, оцените раздачу и оставьте свои комментарий, если Вы скачали Зло через торрент бесплатно! Внесите свою лепту в развитие PiratBit!
    Комментировать посты могут только пользователи прошедшие не сложную регистрацию
    Показать сообщения:    

    Зло через торрент
    Скачать бесплатно Зло
    Зло скачать торрент
    Зло смотреть онлайн
    Cкачать фильм Зло бесплатно
    Зло скачать торрент в хорошем качестве
    Зло смотреть онлайн бесплатно в хорошем качестве


    Вы не можете начинать темы
    Вы не можете отвечать на сообщения
    Вы не можете редактировать свои сообщения
    Вы не можете удалять свои сообщения
    Вы не можете голосовать в опросах
    Вы не можете прикреплять файлы к сообщениям
    Вы можете скачивать файлы