MEGA NEWS Получи личный уникальный адрес сайта и защити себя от блокировок. Внимание количество ограничено!!!

iTunes

1+1

iTunes

мы

iTunes

1

iTunes

Чернобыль

iTunes

Ральф против интернета

Лицензия

ПШазам

Лицензия

Игра престолов

Лицензия

30
pack

ВАЖНО

!!Акция!!

Alien_RageХит недели

RePack

Resident Evil 21

ИГРА 18+

pack

RePack

Metro:Exodus

!!Акция!!

Alien_Rage

RePack

fifa19

RePack

Assassins Creed: Odyssey

RePack

NEED FOR SPEED™ PAYBACK

3 сезон

9 сезон

Бесстыжие 9 сезон

Все сериалы

все сериалы на PB.wtf

RePack

FAR CRY 5
Ребята, катастрофически не хватает 1900р. для оплаты серверов за АВГУСТ (всвязи с блокировками трафик упал в 3 раза), 1-2р., выручайте.
  

20000 лье под водой / 20000 Leagues Under the Sea (Ричард Флайшер) [1954 г., Фантастика, драма, приключения, семейный, BDRip-AVC, Профессиональный (многоголосый)] от ExKinoRay pb.wtf

20000 лье под водой через торрент pb.wtf

Размер: 3.23 GB | Добавлен: 11 мес. назад | Торрент скачан:27 раз
Скачать  

20-10-2018 05:07 20000 лье под водой Скачать торрент  

20000 лье под водой / 20000 Leagues Under the Sea
Год выпуска: 1954
Страна: США
Жанр: Фантастика, драма, приключения, семейный
Продолжительность: 02:07:01
Перевод: Профессиональный (многоголосый)
Субтитры: Английские

Режиссер: Ричард Флайшер

Бюджет: $5 000 000
Премьера в мире: 23 декабря 1954

rating

В ролях: Кирк Дуглас, Джеймс Мэйсон, Пол Лукас, Петер Лорре, Роберт Дж. Уилки, Тед де Корсия, Карлтон Янг, Дж. М. Кэрриган, Перси Хелтон, Тед Купер

Описание: На календаре 1868 год и весь Сан-Франциско взбудоражен поступающими сообщениями о плавающем под водой огромном чудовище, которое может сожрать любое судно, если оно к нему приближается. Многие плавания отменены, и правительство вынуждено послать военный корабль исследовать и очистить море от «чудищ».
Корабль этот был потоплен неизвестным «существом», и только троим чудом удалось спастись: профессональному гарпунисту, профессору из Морского музея в Париже и его помощнику. Их вытаскивают из воды на эту чуду-юду, которое оказывается подводной лодкой Капитана Немо, ученого, изобретателя и радикального борца за мир. Он топит корабли с благородной целью покончить с войной на бескрайних водах мирового океана…

Доп. информация: Перевод: Профессиональный многоголосый [Кинокомпания "Селена Интернешнл" по заказу ТВ-3]

Качество: BDRip-AVC
Формат: MKV
Видео кодек: MPEG4
Аудио кодек: AC3
Видео: MPEG-4 AVC, 3000 Кбит/с, 1024x400, 23.976 кадра/сек
Аудио#1: Русский (AC3, 2 ch, 192 Кбит/с, 48 КГц)
Аудио#2: Английский (AC3, 6 ch, 448 Кбит/с, 48 КГц)
Релиз от:




raw [info]: 1024x400p 1:1 @ 24000/1001 fps (cfr)
x264 [info]: using SAR=1/1
x264 [info]: using cpu capabilities: MMX2 SSE2Fast SSSE3 SSE4.2 AVX FMA3 BMI2 AVX2
x264 [info]: profile High, level 4.1
x264 [info]: frame I:971 Avg QP:16.15 size: 70462
x264 [info]: frame P:37788 Avg QP:18.68 size: 29531
x264 [info]: frame B:143973 Avg QP:19.99 size: 11626
-----
Общее
Уникальный идентификатор : 253834787561445582556693031233924349314 (0xBEF6CD44AD4834FAB5AD7153F63FBD82)
Полное имя : F:\ExKinoRay\20000.Leagues.1954.BDRip-AVC.ExKinoRay.mkv
Формат : Matroska
Версия формата : Version 2
Размер файла : 3,23 Гбайт
Продолжительность : 2 ч. 7 м.
Общий поток : 3642 Кбит/сек
Дата кодирования : UTC 2018-10-20 03:22:43
Программа кодирования : mkvmerge v7.8.0 ('River Man') 32bit built on Apr 3 2015 12:11:22
Библиотека кодирования : libebml v1.3.1 + libmatroska v1.4.2

Видео
Идентификатор : 1
Формат : AVC
Формат/Информация : Advanced Video Codec
Профиль формата : High@L4.1
Настройки формата : CABAC / 12 Ref Frames
Параметр CABAC формата : Да
Параметр RefFrames формата : 12 кадров
Идентификатор кодека : V_MPEG4/ISO/AVC
Продолжительность : 2 ч. 7 м.
Битрейт : 3000 Кбит/сек
Ширина : 1024 пикселя
Высота : 400 пикселей
Соотношение сторон : 2,560
Режим частоты кадров : Постоянный
Частота кадров : 23,976 (24000/1001) кадра/сек
Цветовое пространство : YUV
Субдискретизация насыщенности : 4:2:0
Битовая глубина : 8 бит
Тип развёртки : Прогрессивная
Бит/(Пиксели*Кадры) : 0.305
Размер потока : 2,60 Гбайт (80%)
Библиотека кодирования : x264 core 152 r2851 ba24899
Настройки программы : cabac=1 / ref=12 / deblock=1:-3:-2 / analyse=0x3:0x113 / me=umh / subme=10 / psy=1 / psy_rd=1.00:0.10 / mixed_ref=1 / me_range=32 / chroma_me=1 / trellis=2 / 8x8dct=1 / cqm=0 / deadzone=21,11 / fast_pskip=0 / chroma_qp_offset=-3 / threads=6 / lookahead_threads=1 / sliced_threads=0 / nr=0 / decimate=0 / interlaced=0 / bluray_compat=0 / constrained_intra=0 / bframes=12 / b_pyramid=2 / b_adapt=2 / b_bias=0 / direct=3 / weightb=1 / open_gop=0 / weightp=2 / keyint=250 / keyint_min=23 / scenecut=40 / intra_refresh=0 / rc=2pass / mbtree=0 / bitrate=3000 / ratetol=1.0 / qcomp=0.60 / qpmin=0 / qpmax=69 / qpstep=4 / cplxblur=20.0 / qblur=0.5 / ip_ratio=1.40 / pb_ratio=1.30 / aq=3:1.00
Язык : English
Default : Да
Forced : Нет
Цветовой диапазон : Limited
Основные цвета : BT.709
Характеристики трансфера : BT.709
Коэффициенты матрицы : BT.709

Аудио #1
Идентификатор : 2
Формат : AC-3
Формат/Информация : Audio Coding 3
Коммерческое название : Dolby Digital
Идентификатор кодека : A_AC3
Продолжительность : 2 ч. 7 м.
Вид битрейта : Постоянный
Битрейт : 192 Кбит/сек
Каналы : 2 канала
Channel layout : L R
Частота : 48,0 КГц
Частота кадров : 31,250 кадров/сек (1536 SPF)
Битовая глубина : 16 бит
Метод сжатия : С потерями
Размер потока : 174 Мбайт (5%)
Язык : Russian
ServiceKind/String : Complete Main
Default : Да
Forced : Нет

Аудио #2
Идентификатор : 3
Формат : AC-3
Формат/Информация : Audio Coding 3
Коммерческое название : Dolby Digital
Идентификатор кодека : A_AC3
Продолжительность : 2 ч. 7 м.
Вид битрейта : Постоянный
Битрейт : 448 Кбит/сек
Каналы : 6 каналов
Channel layout : L R C LFE Ls Rs
Частота : 48,0 КГц
Частота кадров : 31,250 кадров/сек (1536 SPF)
Битовая глубина : 16 бит
Метод сжатия : С потерями
Размер потока : 407 Мбайт (12%)
Язык : English
ServiceKind/String : Complete Main
Default : Нет
Forced : Нет

Текст
Идентификатор : 4
Формат : UTF-8
Идентификатор кодека : S_TEXT/UTF8
Идентификатор кодека/Информация : UTF-8 Plain Text
Язык : English
Default : Нет
Forced : Нет

pb.wtf



Скачать 20000 лье под водой через торрент http://a.radikal.ru/a33/1810/1c/08d12f10fdfc.jpg Скачать фильм 20000 лье под водой через торрент бесплантно в хорошем качестве Описание: На календаре 1868 год и весь Сан-Франциско взбудоражен поступающими сообщениями о плавающем под водой огромном чудовище, которое ... 10 10 3
Info! Золотая раздача, скачанное не засчитывается.
Торрент: Зарегистрирован [2018-10-20 05:07] · скачан: 27 раз
Статус: √ проверено
Размер: 3.23 GB
Как cкачать? Как скачать 20000 лье под водой через торрент | qTorrent


>> Регистрируемся здесь <<






Отзывы и комментарии о схеме читаем и пишем здесь: ---> Отзывы и комментарии о схеме

Новые благодарочки в телеграм довольных пользователей:
скриншот   скриншот   скриншот   скриншот   скриншот

20-10-2018 05:57 20000 лье под водой Скачать торрент  

Топик был перенесен из форума Оформление раздач (Кино, Видео и ТВ) в форум Классика зарубежного кино


-Lexx-pb.wtf



    Дорогой пользователь! Огромная просьба, поблагодарите релизера, оцените раздачу и оставьте свои комментарий, если Вы скачали 20000 лье под водой через торрент бесплатно! Внесите свою лепту в развитие PiratBit!
    Комментировать посты могут только пользователи прошедшие не сложную регистрацию
    Показать сообщения:    

    20000 лье под водой через торрент
    Скачать бесплатно 20000 лье под водой
    20000 лье под водой скачать торрент
    20000 лье под водой смотреть онлайн
    Cкачать фильм 20000 лье под водой бесплатно
    20000 лье под водой скачать торрент в хорошем качестве
    20000 лье под водой смотреть онлайн бесплатно в хорошем качестве


    Вы не можете начинать темы
    Вы не можете отвечать на сообщения
    Вы не можете редактировать свои сообщения
    Вы не можете удалять свои сообщения
    Вы не можете голосовать в опросах
    Вы не можете прикреплять файлы к сообщениям
    Вы можете скачивать файлы