Ссылка на приватное зеркало всего за 1$. Внимание количество ограничено!!!

OK

1+1

iTunes

мы

OK

1

WEB-DLRip

Джокер

Пифагор

Ведьмак / The Witcher сериал

iTunes

ПШазам

ОК

Оно 2

iTunes

30
pack

Вам бонус

ВАЖНО

!!Акция!!

Alien_RageХит недели

RePack

Resident Evil 21

ИГРА 18+

pack

RePack

jed

RePack

fifa19

RePack

Assassins Creed: Odyssey

RePack

NEED FOR SPEED™ PAYBACK

4 сезон

9 сезон

Бесстыжие 9 сезон

Все сериалы

все сериалы на PB.wtf

RePack

FAR CRY 5
  

Поверьте мне: Похищение Лизы МакВей / Believe Me: The Abduction of Lisa McVey (Джим Донован) [2018, драма, WEB-DL 720p] MVO ["Синема УС"] pb.wtf

Поверьте мне: Похищение Лизы МакВей через торрент pb.wtf

Размер: 3.45 GB | Добавлен: 1 год 3 мес. назад | Торрент скачан:177 раз
Скачать  

20-10-2018 06:28 Поверьте мне: Похищение Лизы МакВей Скачать торрент  

Поверьте мне: Похищение Лизы МакВей / Believe Me: The Abduction of Lisa McVey Год выпуска: 2018
Страна: Канада
Жанр: драма
Продолжительность: 01:34:21
Перевод: Любительский (многоголосый) | "Синема УС"
Субтитры: отсутствуют

Режиссер: Джим Донован

rating

В ролях:

Кэти Дуглас, Дэвид Джеймс Эллиотт, Киера Счарф, Россиф Сазерленд, Катрин Ранкин

Описание:

Жестокий преступник и девочка-подросток, кто выйдет победителем из схватки не на жизнь, а на смерть. История, основанная на реальных событиях.

Качество: WEB-DL 720p
Формат: MKV

Видео: h.264, 4 843 kb/s, 1280x720
Аудио#1: Русский, (AC3, 2 ch, 384 Кбит/с)
скриншот  скриншот  скриншот  

Общее
Уникальный идентификатор : 191933662442422375762347279221819437985 (0x9065142B25BCFB8CB37E15399073F3A1)
Полное имя : D:\Believe.Me.The.Abduction.of.Lisa.McVey.2018.P.WEB-DL.72Op_KOSHARA.mkv
Формат : Matroska
Версия формата : Version 2
Размер файла : 3,45 Гбайт
Продолжительность : 1 ч. 34 м.
Режим общего битрейта : Переменный
Общий поток : 5229 Кбит/сек
Дата кодирования : UTC 2018-10-17 07:15:57
Программа кодирования : mkvmerge v8.3.0 ('Over the Horizon') 64bit
Библиотека кодирования : libebml v1.3.1 + libmatroska v1.4.2

Видео
Идентификатор : 1
Формат : AVC
Формат/Информация : Advanced Video Codec
Профиль формата : High@L4.1
Параметр CABAC формата : Да
Параметр RefFrames формата : 4 кадра
Идентификатор кодека : V_MPEG4/ISO/AVC
Продолжительность : 1 ч. 34 м.
Вид битрейта : Переменный
Битрейт : 4843 Кбит/сек
Максимальный битрейт : 5500 Кбит/сек
Ширина : 1280 пикселей
Высота : 720 пикселей
Соотношение сторон : 16:9
Режим частоты кадров : Постоянный
Частота кадров : 23,976 (24000/1001) кадра/сек
Стандарт вещания : Component
Цветовое пространство : YUV
Субдискретизация насыщенности : 4:2:0
Битовая глубина : 8 бит
Тип развёртки : Прогрессивная
Бит/(Пиксели*Кадры) : 0.215
Размер потока : 3,12 Гбайт (91%)
Default : Да
Forced : Нет
Цветовой диапазон : Limited
Основные цвета : BT.709
Характеристики трансфера : BT.709
Коэффициенты матрицы : BT.709

Аудио
Идентификатор : 2
Формат : AC-3
Формат/Информация : Audio Coding 3
Расширение режима : CM (complete main)
Параметр Endianness формата : Big
Идентификатор кодека : A_AC3
Продолжительность : 1 ч. 34 м.
Вид битрейта : Постоянный
Битрейт : 384 Кбит/сек
Каналы : 2 канала
Расположение каналов : Front: L R
Частота : 48,0 КГц
Частота кадров : 31,250 кадров/сек (1536 spf)
Метод сжатия : С потерями
Размер потока : 259 Мбайт (7%)
Default : Да
Forced : Нет

pb.wtf



Скачать Поверьте мне: Похищение Лизы МакВей через торрент http://img10.lostpic.net/2018/10/20/2b6fd9ae0b3396fcc945df90b3c69b2d.jpg Скачать фильм Поверьте мне: Похищение Лизы МакВей через торрент бесплантно в хорошем качестве Описание: Жестокий преступник и девочка-подросток, кто выйдет победителем из схватки не на жизнь, а на смерть. История, основанная на ... 9.4 10 7
Торрент: Зарегистрирован [2018-10-20 06:28] · скачан: 177 раз
Статус: T временная
Размер: 3.45 GB
Как cкачать? Как скачать Поверьте мне: Похищение Лизы МакВей через торрент | qTorrent

% Раздел Тема Автор DL S | L
T Фильмы (мультфильмы) cо спонсором показа (Новинки AVI/MKV) [ 1.37 GB ] Поверьте мне: Похищение Лизы МакВей / Believe Me: The Abduction of Lisa McVey [2018 WEB-DLRip] MVO ["Синема УС"] bober100 Скачать
1 | 0

28-11-2019 20:33  

Отключить всю рекламу на сайте

20-10-2018 15:45 Поверьте мне: Похищение Лизы МакВей Скачать торрент  

Забираю, ко мент позже, автору спс.pb.wtf



21-10-2018 15:39 Поверьте мне: Похищение Лизы МакВей Скачать торрент  

Начало фильма весьма бодрое,примерно с середины-бред... pb.wtf



22-10-2018 14:35 Поверьте мне: Похищение Лизы МакВей Скачать торрент  

Неплохой фильм оценка 4 из 5 автору спс.pb.wtf



    Дорогой пользователь! Огромная просьба, поблагодарите релизера, оцените раздачу и оставьте свои комментарий, если Вы скачали Поверьте мне: Похищение Лизы МакВей через торрент бесплатно! Внесите свою лепту в развитие PiratBit!
    Комментировать посты могут только пользователи прошедшие не сложную регистрацию
    Показать сообщения:    

    Поверьте мне: Похищение Лизы МакВей через торрент
    Скачать бесплатно Поверьте мне: Похищение Лизы МакВей
    Поверьте мне: Похищение Лизы МакВей скачать торрент
    Поверьте мне: Похищение Лизы МакВей смотреть онлайн
    Cкачать фильм Поверьте мне: Похищение Лизы МакВей бесплатно
    Поверьте мне: Похищение Лизы МакВей скачать торрент в хорошем качестве
    Поверьте мне: Похищение Лизы МакВей смотреть онлайн бесплатно в хорошем качестве


    Вы не можете начинать темы
    Вы не можете отвечать на сообщения
    Вы не можете редактировать свои сообщения
    Вы не можете удалять свои сообщения
    Вы не можете голосовать в опросах
    Вы не можете прикреплять файлы к сообщениям
    Вы можете скачивать файлы