2 сезон

iTunes

1 сезон

1

iTunes

iTunes

iTunes

1 сезон

RePack

30

ИГРА 18+

pack

ВАЖНО

!!Акция!!

Alien_RageХит недели

RePack

MK11
pack

Забери бонус

RePack

jed

!!Акция!!

Alien_Rage

RePack

fifa19

RePack

Assassins Creed: Odyssey

RePack

NEED FOR SPEED™ PAYBACK

4 сезон

9 сезон

Бесстыжие 9 сезон

Все сериалы

все сериалы на PB.wtf

RePack

FAR CRY 5
  

Селфи с судьбой / Серии: 1-4 (Петр Амелин) [2018, Детектив, WEB-DL 1080p] pb.wtf

Селфи с судьбой через торрент pb.wtf

Размер: 3.33 GB | Добавлен: 2 года назад | Торрент скачан:71 раз
Скачать  

20-10-2018 18:29 Селфи с судьбой Скачать торрент  

Селфи с судьбойГод выпуска: 2018
Страна: Россия
Жанр: Детектив
Продолжительность: ~ 00:43:00
Субтитры: отсутствуют

Режиссер: Петр Амелин



В ролях:

Антон Хабаров, Анастасия Лошакова, Екатерина Решетникова, Алексей Митин, Юлия Полынская, Игорь Вуколов, Маргарита Павлова, Роман Кочержевский, Борис Хвошнянский, Игорь Лепихин

Описание:

У профессора физико-математических наук Ильи Субботина странное хобби – он разгадывает преступления. В этот раз ему придётся разбираться в убийстве почтенной дамы, которую задушили в сувенирном магазинчике села Сокольничьего. Дело вроде бы закрыто. Преступник - местный пьянчужка, задержан по горячим следам, но Илья в это не верит и стремится установить истину. В местном доме отдыха вокруг него собирается любопытная компания: экстравагантная поэтесса, что-то скрывающая экскурсоводша, чудаковатый парень, немолодой джентльмен, парочка, "не вылезающая" из интернета, печальная красотка и известный кинорежиссёр. Кто-то из них убийца. Но кто?

Качество: WEB-DL 1080p
Формат: MKV

Видео: MPEG-4 AVC, ~ 2675 Кбит/с, 1920x1080
Аудио: AC3, 2 ch, 192 Кбит/с

Общее
Уникальный идентификатор : 59047510915410404931137668025520610788 (0x2C6C230E96A4C44336B5AA6AA541DDE4)
Полное имя : D:\Селфи с судьбой (2018).by.Алехаndr\Серия 1.by.Алехаndr.mkv
Формат : Matroska
Версия формата : Version 4 / Version 2
Размер файла : 924 Мбайт
Продолжительность : 43 м. 43 с.
Общий поток : 2954 Кбит/сек
Дата кодирования : UTC 2018-10-20 16:30:46
Программа кодирования : mkvmerge v27.0.0 ('Metropolis') 32-bit
Библиотека кодирования : libebml v1.3.6 + libmatroska v1.4.9 / Lavf57.71.100

Видео
Идентификатор : 1
Формат : AVC
Формат/Информация : Advanced Video Codec
Профиль формата : High@L4
Параметр CABAC формата : Да
Параметр RefFrames формата : 2 кадра
Идентификатор кодека : V_MPEG4/ISO/AVC
Продолжительность : 43 м. 43 с.
Битрейт : 2760 Кбит/сек
Ширина : 1920 пикселей
Высота : 1080 пикселей
Соотношение сторон : 16:9
Режим частоты кадров : Постоянный
Частота кадров : 25,000 кадров/сек
Цветовое пространство : YUV
Субдискретизация насыщенности : 4:2:0
Битовая глубина : 8 бит
Тип развёртки : Прогрессивная
Бит/(Пиксели*Кадры) : 0.053
Размер потока : 863 Мбайт (93%)
Default : Да
Forced : Нет
Цветовой диапазон : Limited
Основные цвета : BT.709
Характеристики трансфера : BT.709
Коэффициенты матрицы : BT.709
HANDLER_NAME : VideoHandler

Аудио
Идентификатор : 2
Формат : AC-3
Формат/Информация : Audio Coding 3
Расширение режима : CM (complete main)
Параметр Endianness формата : Big
Идентификатор кодека : A_AC3
Продолжительность : 43 м. 43 с.
Вид битрейта : Постоянный
Битрейт : 192 Кбит/сек
Каналы : 2 канала
Расположение каналов : Front: L R
Частота : 48,0 КГц
Частота кадров : 31,250 кадров/сек (1536 spf)
Метод сжатия : С потерями
Размер потока : 60,0 Мбайт (6%)
Язык : English
Default : Да
Forced : Нет
HANDLER_NAME : SoundHandler

pb.wtf



Скачать Селфи с судьбой через торрент http://i80.fastpic.ru/big/2018/1020/32/bf193866251a7ee6696d7300d20ac632.jpg Скачать фильм Селфи с судьбой через торрент бесплантно в хорошем качестве Описание: У профессора физико-математических наук Ильи Субботина странное хобби – он разгадывает преступления. В этот раз ему придётся ... 10 10 3
Торрент: Зарегистрирован [2018-10-20 18:31] · скачан: 71 раз
Статус: √ проверено
Размер: 3.33 GB
Как cкачать? Как скачать Селфи с судьбой через торрент | qTorrent

% Раздел Тема Автор DL S | L
Наши сериалы [ 2.3 GB ] Селфи с судьбой / Серии: 1-4 из 4 [2018экранизация SATRip-AVC] aleksan55 Скачать
1 | 0

28-11-2019 20:33  

Отключить всю рекламу на сайте

    Дорогой пользователь! Огромная просьба, поблагодарите релизера, оцените раздачу и оставьте свои комментарий, если Вы скачали Селфи с судьбой через торрент бесплатно! Внесите свою лепту в развитие PiratBit!
    Комментировать посты могут только пользователи прошедшие не сложную регистрацию
    Показать сообщения:    

    Селфи с судьбой через торрент
    Скачать бесплатно Селфи с судьбой
    Селфи с судьбой скачать торрент
    Селфи с судьбой смотреть онлайн
    Cкачать фильм Селфи с судьбой бесплатно
    Селфи с судьбой скачать торрент в хорошем качестве
    Селфи с судьбой смотреть онлайн бесплатно в хорошем качестве


    Вы не можете начинать темы
    Вы не можете отвечать на сообщения
    Вы не можете редактировать свои сообщения
    Вы не можете удалять свои сообщения
    Вы не можете голосовать в опросах
    Вы не можете прикреплять файлы к сообщениям
    Вы можете скачивать файлы