2 сезон

iTunes

1 сезон

1

iTunes

iTunes

iTunes

1 сезон

RePack

30

ИГРА 18+

pack

ВАЖНО

!!Акция!!

Alien_RageХит недели

RePack

MK11
pack

Забери бонус

RePack

jed

!!Акция!!

Alien_Rage

RePack

fifa19

RePack

Assassins Creed: Odyssey

RePack

NEED FOR SPEED™ PAYBACK

4 сезон

9 сезон

Бесстыжие 9 сезон

Все сериалы

все сериалы на PB.wtf

RePack

FAR CRY 5
  

Папаньки / Сезон: 1 / Серии: 1-16 из 16 (Ирина Васильева (II), Александр Кананович) [2018, комедия, WEB-DL 1080p] pb.wtf

Папаньки через торрент pb.wtf

Размер: 26.87 GB | Добавлен: 2 года назад | Торрент скачан:39 раз
Скачать  

20-10-2018 19:54 Папаньки Скачать торрент  

ПапанькиГод выпуска: 2018
Страна: Украина
Жанр: комедия
Продолжительность: 00:42:00
Перевод: Не требуется
Субтитры: отсутствуют

Режиссер: Ирина Васильева (II), Александр Кананович



В ролях:

Егор Крутоголов, Евгений Гашенко, Евгений Сморигин, Андрей Фединчик, Лилия Ребрик, Демьян Шиян, Ольга Арутюнян, Вероника Лукьяненко, Ольга Лукьяненко, Надежда Кондратовская, Анна Варпаховская, Олег Стальчук, Вячеслав Хостикоев, Александр Ярема, Олег Иваница, Лариса Трояновская, Татьяна Зиновенко, Анатолий Зиновенко, Александр Бережок, Александр Бегма, Мария Мархай

Описание:

Четверо друзей живут в одном дворе столичной многоэтажки. Кроме чисто мужских интересов, их объединяет важная тема – воспитание детей. Один из героев только готовится стать отцом, другой воспитывает 7-летнего сына, а третий – сына и двух дочек разного возраста. Герои безумно любят своих детей, гордятся их успехами и активно вовлечены в их воспитание. Только иногда отцы забывают, что сами уже выросли. И есть у них ещё четвёртый друг – заядлый холостяк и ловелас, который категорически не хочет заводить детей.

Качество: WEB-DL 1080p
Формат: MKV

Видео: MPEG-4 AVC, ~ 4802 Кбит/с, 1920x1080
Аудио: AC3, 2 ch, 192 Кбит/с
скриншот  скриншот  скриншот  скриншот  скриншот  

Общее
Уникальный идентификатор : 203446576240869669881387196409823122076 (0x990E62A4C282D1E925205F582E14529C)
Полное имя : D:\Папаньки.s01.2018.WEB-DL (1080p).by.Nicodem.Files-x\01.Папаньки.s01.E01.2018.WEB-DL (1080p).by.Nicodem.Files-x.mkv
Формат : Matroska
Версия формата : Version 4 / Version 2
Размер файла : 1,50 Гбайт
Продолжительность : 42 м. 1 с.
Общий поток : 5095 Кбит/сек
Программа кодирования : Lavf56.36.100
Библиотека кодирования : Lavf56.36.100 / Lavf56.36.100

Видео
Идентификатор : 1
Формат : AVC
Формат/Информация : Advanced Video Codec
Профиль формата : High@L4
Параметр CABAC формата : Да
Параметр RefFrames формата : 4 кадра
Идентификатор кодека : V_MPEG4/ISO/AVC
Продолжительность : 42 м. 1 с.
Битрейт : 4802 Кбит/сек
Ширина : 1920 пикселей
Высота : 1080 пикселей
Соотношение сторон : 16:9
Режим частоты кадров : Постоянный
Частота кадров : 25,000 кадров/сек
Цветовое пространство : YUV
Субдискретизация насыщенности : 4:2:0
Битовая глубина : 8 бит
Тип развёртки : Прогрессивная
Бит/(Пиксели*Кадры) : 0.093
Размер потока : 1,41 Гбайт (94%)
Default : Да
Forced : Нет

Аудио
Идентификатор : 2
Формат : AC-3
Формат/Информация : Audio Coding 3
Расширение режима : CM (complete main)
Параметр Endianness формата : Big
Идентификатор кодека : A_AC3
Продолжительность : 42 м. 1 с.
Вид битрейта : Постоянный
Битрейт : 192 Кбит/сек
Каналы : 2 канала
Расположение каналов : Front: L R
Частота : 44,1 КГц
Частота кадров : 28,711 кадров/сек (1536 spf)
Метод сжатия : С потерями
Задержка видео : -160 мс.
Размер потока : 57,7 Мбайт (4%)
Язык : unknown
Default : Да
Forced : Нет

pb.wtf



Скачать Папаньки через торрент https://i89.fastpic.ru/big/2018/0924/f4/775818c70d1e14fc02e294c4ae8fddf4.jpg Скачать фильм Папаньки через торрент бесплантно в хорошем качестве Описание: Четверо друзей живут в одном дворе столичной многоэтажки. Кроме чисто мужских интересов, их объединяет важная тема – воспитание ... 8.2 10 5
Info! Золотая раздача, скачанное не засчитывается.
Торрент: Зарегистрирован [2018-10-20 19:54] · скачан: 39 раз
Статус: √ проверено
Размер: 26.87 GB
Как cкачать? Как скачать Папаньки через торрент | qTorrent

% Раздел Тема Автор DL S | L
Наши сериалы [ 11.4 GB ] Папаньки / Сезон: 1 / Серии: 1-16 из 16 Александр Кананович) [2018 WEB-DL 720p] bober100 Скачать
1 | 0
Наши сериалы [ 9.13 GB ] Папаньки / Сезон: 1 / Серии: 1-16 из 16 Александр Кананович) [2018 WEB-DLRip] bober100 Скачать
1 | 0

28-11-2019 20:33  

Отключить всю рекламу на сайте

22-10-2018 06:28 Папаньки Скачать торрент  

Прикольный сериал!pb.wtf



    Дорогой пользователь! Огромная просьба, поблагодарите релизера, оцените раздачу и оставьте свои комментарий, если Вы скачали Папаньки через торрент бесплатно! Внесите свою лепту в развитие PiratBit!
    Комментировать посты могут только пользователи прошедшие не сложную регистрацию
    Показать сообщения:    

    Папаньки через торрент
    Скачать бесплатно Папаньки
    Папаньки скачать торрент
    Папаньки смотреть онлайн
    Cкачать фильм Папаньки бесплатно
    Папаньки скачать торрент в хорошем качестве
    Папаньки смотреть онлайн бесплатно в хорошем качестве


    Вы не можете начинать темы
    Вы не можете отвечать на сообщения
    Вы не можете редактировать свои сообщения
    Вы не можете удалять свои сообщения
    Вы не можете голосовать в опросах
    Вы не можете прикреплять файлы к сообщениям
    Вы можете скачивать файлы