2 сезон

iTunes

MVO

1

2 сезон

iTunes

iTunes

1 сезон

RePack

30

Новинка

ВАЖНО

ИГРА 18+

pack

RePack

MK11
pack

Легкие деньги

RePack

jed

RePack

fifa19

RePack

RDR2

RePack

NEED FOR SPEED™ PAYBACK

4 сезон

9 сезон

Бесстыжие 9 сезон

Все сериалы

все сериалы на PB.wtf

RePack

FAR CRY 5

Anonymous, добрый день, мы не успеваем собрать деньги на оплату серверов за декабрь и январь, помогите нам пожалуйста в это трудное время. В качестве благодарности мы отключим Вам всю рекламу на сайте (укажите свой ник в строку Ваше имя)!

×
  
Magnet ссылка

Пятница 13-е – Часть 3 3Д / Friday the 13th Part III 3D (Стив Майнер) [1982, ужасы, триллер, BDRip 1080p] [Half SideBySide / Горизонтальная анаморфная стереопара] MVO [СВ-Дубль] pb.wtf

Пятница 13-е – Часть 3 3Д через торрент pb.wtf

Размер: 11.64 GB | Добавлен: 2 года 3 мес. назад | Торрент скачан:33 раза
Скачать  

20-10-2018 20:31 Пятница 13-е – Часть 3 3Д Скачать торрент  

Пятница 13-е – Часть 3
Friday the 13th Part III 3D
«Присоединяйтесь к Джейсону в лесу... если отважитесь
Год выпуска: 1982
Страна: США
Жанр: ужасы, триллер
Продолжительность: 01:35:26
Перевод: Профессиональный (многоголосый) | СВ-Дубль
Субтитры:

Вшитые (softsub):
#1 - Русские Форсированные (включены по умолчанию)
#2 - English Full

Внешние (UTF-8):
#1 - Русские Форсированные (включены по умолчанию)

Режиссер: Стив Майнер

rating

В ролях:

Дэна Киммелл (Крис), Пол Кратка (Рик), Трейси Сэвадж (Дебби), Джеффри Роджерс (Энди), Катрин Паркс (Вера), Ларри Зернер (Шелли), Дэвид Катимс (Чак), Рэйчел Ховард (Чили), Ричард Брукер (Джейсон), Глория Чарльз (Фокс), Ник Сэвадж (Али), Кевин О’Брайэн (Локо), Шери Моганс (Эдна), Стив Сусскинд (Харольд)

Описание:

Летние каникулы превращаются в чудовищный кровавый кошмар для очередной группы наивных и беспечных молодых людей, которые оказались во власти зловещего проклятия лагеря «Хрустальное озеро». Джейсон Вурхиз снова здесь, и он хочет крови!
Сначала он будет изобретать новые изощренные способы убийства, а потом, через прорези хоккейной маски, будет наблюдать за страшной агонией своих жертв!


Качество: BDRip 1080p
Формат: MKV

Видео: AVC / 1920х1080p / 23,976 fps / 15.8 Mbps
Аудио#1: Русский / AC3 / 48 KHz / 5.1 ch / 640 Kbps (MVO - СВ-Дубль (2017)) (перемонтаж - Ash61)
Аудио#2: Английский / AC3 / 48 KHz / 5.1 ch / 640 Kbps (Original)


Формат 3D: Half SideBySide / Горизонтальная анаморфная стереопара
Порядок ракурсов: левый ракурс первый
Видео забугорное. Смонтировано: в качестве исходника для одного ракурса взят BD 2D, для другого - DVD 2D. В течении примерно 15 минут фильма ракурсы на указанных источниках были одинаковые, эти сцены были получены методом деанаглифирования с BD 3D Anaglyph. Автор видео, насколько было возможно, подкорректировал цвето-яркостные характеристики ракурсов.
Около 6-ти минут начала фильма видео в 2Д (так сделано авторами фильма).
Русская аудиодорога получена вставкой вырезанных фраз в центр оригинала (за исходник русской дороги спасибо flaSI-I!).

скриншот  скриншот  скриншот  скриншот  скриншот  

General
Unique ID : 218933781073322254371826012356117329424 (0xA4B51CCB890D28BD8C9C2D84ED20F610)
Complete name : D:FridayThe13thPartIII(1982)3D-halfSBS.HDRip.1080p(SV-Dubl'[Ash61])FridayThe13thPartIII(1982)3D-halfSBS.HDRip.1080p(SV-Dubl'[Ash61]).mkv
Format : Matroska
Format version : Version 2
File size : 11.6 GiB
Duration : 1h 35mn
Overall bit rate : 17.5 Mbps
Movie name : Пятница 13-е – Часть 3 / Friday the 13th Part III (1982) in 3D
Encoded date : UTC 2018-10-20 00:01:07
Writing application : mkvmerge v5.8.0 ('No Sleep / Pillow') built on Sep 2 2012 15:37:04
Writing library : libebml v1.2.3 + libmatroska v1.3.0
Cover : Yes
Attachments : cover.jpg / small_cover.jpg / cover_land.jpg / small_cover_land.jpg

Video
ID : 1
Format : AVC
Format/Info : Advanced Video Codec
Format profile : High@L4.1
Format settings, CABAC : Yes
Format settings, ReFrames : 4 frames
Codec ID : V_MPEG4/ISO/AVC
Duration : 1h 35mn
Bit rate : 15.8 Mbps
Width : 1 920 pixels
Height : 1 080 pixels
Display aspect ratio : 16:9
Frame rate mode : Constant
Frame rate : 23.976 (24000/1001) fps
Color space : YUV
Chroma subsampling : 4:2:0
Bit depth : 8 bits
Scan type : Progressive
Bits/(Pixel*Frame) : 0.318
Stream size : 10.6 GiB (91%)
Title : Friday.the.13th.Part.III.1982.1080p.3D.Half.SBS.DD5.1.x264
Writing library : x264 core 142 r2479 dd79a61
Encoding settings : cabac=1 / ref=4 / deblock=1:-3:-3 / analyse=0x3:0x133 / me=umh / subme=10 / psy=1 / psy_rd=1.00:0.00 / mixed_ref=1 / me_range=32 / chroma_me=1 / trellis=2 / 8x8dct=1 / cqm=0 / deadzone=21,11 / fast_pskip=0 / chroma_qp_offset=-2 / threads=3 / lookahead_threads=1 / sliced_threads=0 / nr=0 / decimate=0 / interlaced=0 / bluray_compat=0 / constrained_intra=0 / bframes=16 / b_pyramid=2 / b_adapt=2 / b_bias=0 / direct=3 / weightb=1 / open_gop=0 / weightp=1 / keyint=240 / keyint_min=24 / scenecut=40 / intra_refresh=0 / rc_lookahead=60 / rc=crf / mbtree=0 / crf=18.0 / qcomp=0.65 / qpmin=0 / qpmax=69 / qpstep=4 / vbv_maxrate=62500 / vbv_bufsize=78125 / crf_max=0.0 / nal_hrd=none / filler=0 / ip_ratio=1.40 / pb_ratio=1.30 / aq=2:0.80
Language : English
Default : Yes
Forced : No
Color range : Limited
Color primaries : BT.709
Transfer characteristics : BT.709
Matrix coefficients : BT.709

Audio #1
ID : 2
Format : AC-3
Format/Info : Audio Coding 3
Mode extension : CM (complete main)
Format settings, Endianness : Big
Codec ID : A_AC3
Duration : 1h 35mn
Bit rate mode : Constant
Bit rate : 640 Kbps
Channel(s) : 6 channels
Channel positions : Front: L C R, Side: L R, LFE
Sampling rate : 48.0 KHz
Frame rate : 31.250 fps (1536 spf)
Compression mode : Lossy
Delay relative to video : -83ms
Stream size : 437 MiB (4%)
Title : MVO - СВ-Дубль (2017г.) [перемонтаж Ash61]
Language : Russian
Default : Yes
Forced : No

Audio #2
ID : 3
Format : AC-3
Format/Info : Audio Coding 3
Mode extension : CM (complete main)
Format settings, Endianness : Big
Codec ID : A_AC3
Duration : 1h 35mn
Bit rate mode : Constant
Bit rate : 640 Kbps
Channel(s) : 6 channels
Channel positions : Front: L C R, Side: L R, LFE
Sampling rate : 48.0 KHz
Frame rate : 31.250 fps (1536 spf)
Compression mode : Lossy
Delay relative to video : -83ms
Stream size : 437 MiB (4%)
Title : 640 kbps / 5.1 ch
Language : English
Default : No
Forced : No

Text #1
ID : 4
Format : UTF-8
Codec ID : S_TEXT/UTF8
Codec ID/Info : UTF-8 Plain Text
Title : Форсированные
Language : Russian
Default : Yes
Forced : No

Text #2
ID : 5
Format : UTF-8
Codec ID : S_TEXT/UTF8
Codec ID/Info : UTF-8 Plain Text
Title : Full
Language : English
Default : No
Forced : No

Menu
00:00:00.000 : en:Chapter 1
00:07:49.802 : en:Chapter 2
00:16:45.921 : en:Chapter 3
00:22:41.276 : en:Chapter 4
00:31:11.869 : en:Chapter 5
00:36:12.295 : en:Chapter 6
00:44:35.923 : en:Chapter 7
00:48:38.040 : en:Chapter 8
00:52:34.067 : en:Chapter 9
00:56:13.953 : en:Chapter 10
01:05:45.024 : en:Chapter 11
01:10:07.578 : en:Chapter 12
01:15:43.497 : en:Chapter 13
01:25:08.061 : en:Chapter 14

pb.wtf



Скачать Пятница 13-е – Часть 3 3Д через торрент https://b.radikal.ru/b20/1810/f4/be340887ad6c.png Скачать фильм Пятница 13-е – Часть 3 3Д через торрент бесплантно в хорошем качестве Описание: Летние каникулы превращаются в чудовищный кровавый кошмар для очередной группы наивных и беспечных молодых людей, которые ... 10 10 3
Info! Золотая раздача, скачанное не засчитывается.
Торрент: Зарегистрирован [2018-10-20 20:31] · скачан: 33 раз
Статус: √ проверено
Размер: 11.64 GB
Как cкачать? Как скачать Пятница 13-е – Часть 3 3Д через торрент | UTorrent

% Раздел Тема Автор DL S | L
3D Фильмы [ 23.68 GB ] Пятница 13-е – Часть 3 в 3Д / Friday the 13th Part III 3D [1982 BDRip 1080p] OverUnder / Вертикальная стереопара serega768 Скачать
1 | 0

28-11-2019 20:33  

Отключить всю рекламу на сайте

    Дорогой пользователь! Огромная просьба, поблагодарите релизера, оцените раздачу и оставьте свои комментарий, если Вы скачали Пятница 13-е – Часть 3 3Д через торрент бесплатно! Внесите свою лепту в развитие PiratBit!
    Комментировать посты могут только пользователи прошедшие не сложную регистрацию
    Показать сообщения:    

    Пятница 13-е – Часть 3 3Д через торрент
    Скачать бесплатно Пятница 13-е – Часть 3 3Д
    Пятница 13-е – Часть 3 3Д скачать торрент
    Пятница 13-е – Часть 3 3Д смотреть онлайн
    Cкачать фильм Пятница 13-е – Часть 3 3Д бесплатно
    Пятница 13-е – Часть 3 3Д скачать торрент в хорошем качестве
    Пятница 13-е – Часть 3 3Д смотреть онлайн бесплатно в хорошем качестве


    Вы не можете начинать темы
    Вы не можете отвечать на сообщения
    Вы не можете редактировать свои сообщения
    Вы не можете удалять свои сообщения
    Вы не можете голосовать в опросах
    Вы не можете прикреплять файлы к сообщениям
    Вы можете скачивать файлы