новый адрес
Ссылка на приватное зеркало всего за 1$. Внимание количество ограничено!!!

iTunes

1+1

iTunes

мы

iTunes

1

iTunes

Чернобыль

iTunes

Ральф против интернета

Лицензия

ПШазам

Лицензия

Оно 2

Лицензия

30
pack

Вам бонус

ВАЖНО

!!Акция!!

Alien_RageХит недели

RePack

Resident Evil 21

ИГРА 18+

pack

RePack

jed

!!Акция!!

Alien_Rage

RePack

fifa19

RePack

Assassins Creed: Odyssey

RePack

NEED FOR SPEED™ PAYBACK

3 сезон

9 сезон

Бесстыжие 9 сезон

Все сериалы

все сериалы на PB.wtf

RePack

FAR CRY 5
Ребята, катастрофически не хватает 1900р. для оплаты серверов за Октябрь (всвязи с блокировками трафик упал в 3 раза), 1-2р., выручайте.
  

Килиманджара (Екатерина Телегина) [2018, комедия, приключения, WEB-DLRip] pb.wtf

Килиманджара через торрент pb.wtf

Раздают: 3 [ 0 KB/s ]
Размер: 1.09 GB | Добавлен: 1 год назад | Торрент скачан:481 раз
Скачать  

20-10-2018 21:04 Килиманджара Скачать торрент  

Килиманджара
Год выпуска: 2018
Страна: Россия
Жанр: комедия, приключения
Продолжительность: 01:12:45
Перевод: Не требуется
Субтитры: отсутствуют

Режиссер: Екатерина Телегина



В ролях:

Павел Прилучный, Максим Виторган, Тимофей Трибунцев, Ирина Старшенбаум, Таир Иманов, Артем Сучков, Мария Смольникова, Варвара Бородина, Ирина Горбачева, Мурад Мамедов

Описание:

Когда к тебе на свадьбу не приезжает жених, остается только одно - найти его. Именно так и поступает красавица Маруся, отправившись на поиски своего возлюбленного в его родной Азербайджан. И хорошо, что рядом есть дружная команда друзей, или не очень дружная и не совсем друзей. На такие приключения в Баку не рассчитывал никто из компании Маруси, как и сами жители.

Качество: WEB-DLRip
Формат: AVI

Видео: XviD build 73, 720x304 (2.35:1), 25.000 fps, 1936 Kbps (0.354 bit/pixel)
Аудио: 48.0 kHz, AC3, 2/0 ch, 192 kbps
скриншот  скриншот  скриншот  скриншот  

General
Complete name : D:RazdachiKilimandzhara.2018.XviD.WEB-DLRip.1.08Gb.GeneralFilm.avi
Format : AVI
Format/Info : Audio Video Interleave
File size : 1.09 GiB
Duration : 1 h 12 min
Overall bit rate : 2 138 kb/s
Writing application : VirtualDubMod 1.5.10.3 | www.virtualdub-fr.org || (build 2550/release)
Writing library : VirtualDubMod build 2550/release

Video
ID : 0
Format : MPEG-4 Visual
Format profile : Advanced Simple@L5
Format settings, BVOP : 1
Format settings, QPel : No
Format settings, GMC : No warppoints
Format settings, Matrix : Custom
Codec ID : XVID
Codec ID/Hint : XviD
Duration : 1 h 12 min
Bit rate : 1 936 kb/s
Width : 720 pixels
Height : 304 pixels
Display aspect ratio : 2.35:1
Frame rate : 25.000 FPS
Color space : YUV
Chroma subsampling : 4:2:0
Bit depth : 8 bits
Scan type : Progressive
Compression mode : Lossy
Bits/(Pixel*Frame) : 0.354
Stream size : 1 007 MiB (91%)
Writing library : XviD 73

Audio
ID : 1
Format : AC-3
Format/Info : Audio Coding 3
Format settings, Endianness : Big
Codec ID : 2000
Duration : 1 h 12 min
Bit rate mode : Constant
Bit rate : 192 kb/s
Channel(s) : 2 channels
Channel positions : Front: L R
Sampling rate : 48.0 kHz
Frame rate : 31.250 FPS (1536 SPF)
Bit depth : 16 bits
Compression mode : Lossy
Stream size : 99.9 MiB (9%)
Alignment : Split accross interleaves
Interleave, duration : 40 ms (1.00 video frame)
Interleave, preload duratio : 500 ms
Service kind : Complete Main

pb.wtf



Скачать Килиманджара через торрент https://img11.lostpic.net/2018/07/24/cf69e59c1415df9bf4d19d6520f5c3e5.jpg Скачать фильм Килиманджара через торрент бесплантно в хорошем качестве Описание: Когда к тебе на свадьбу не приезжает жених, остается только одно - найти его. Именно так и поступает красавица Маруся, ... 9.7 10 15
Info! Золотая раздача, скачанное не засчитывается.
Торрент: Зарегистрирован [2018-10-20 21:04] · скачан: 481 раз
Статус: T временная
Размер: 1.09 GB
Как cкачать? Как скачать Килиманджара через торрент | qTorrent

% Раздел Тема Автор DL S | L
T Наши новые фильмы 2018-2019 [ 1.04 GB ] Килиманджара [2018 WEB-DLRip-AVC] bober100 Скачать
2 | 0
T Наши новые фильмы 2018-2019 [ 651 MB ] Килиманджара [2018 WEB-DLRip-AVC] Sanekzade1989 Скачать
2 | 0
T Наши фильмы (HD, WEB-DL 720p, 1080p) [ 2.7 GB ] Килиманджара [2018 WEB-DL 1080p] bober100 Скачать
3 | 0
Детективы, Боевики, Триллеры [ 402 MB ] Сергей Лысенко - Киллер и Килиманджаро [Владимир Князев 2015 192 kbps MP3] Бумер Скачать
1 | 0


>> Регистрируемся здесь <<






Отзывы и комментарии о схеме читаем и пишем здесь: ---> Отзывы и комментарии о схеме

Новые благодарочки в телеграм довольных пользователей:
скриншот   скриншот   скриншот   скриншот   скриншот
    Дорогой пользователь! Огромная просьба, поблагодарите релизера, оцените раздачу и оставьте свои комментарий, если Вы скачали Килиманджара через торрент бесплатно! Внесите свою лепту в развитие PiratBit!
    Комментировать посты могут только пользователи прошедшие не сложную регистрацию
    Показать сообщения:    

    Килиманджара через торрент
    Скачать бесплатно Килиманджара
    Килиманджара скачать торрент
    Килиманджара смотреть онлайн
    Cкачать фильм Килиманджара бесплатно
    Килиманджара скачать торрент в хорошем качестве
    Килиманджара смотреть онлайн бесплатно в хорошем качестве


    Вы не можете начинать темы
    Вы не можете отвечать на сообщения
    Вы не можете редактировать свои сообщения
    Вы не можете удалять свои сообщения
    Вы не можете голосовать в опросах
    Вы не можете прикреплять файлы к сообщениям
    Вы можете скачивать файлы