новый адрес
Ссылка на приватное зеркало всего за 1$. Внимание количество ограничено!!!

iTunes

1+1

iTunes

мы

WEB-DL

1

iTunes

Чернобыль

iTunes

Ральф против интернета

Лицензия

ПШазам

Лицензия

Оно 2

Лицензия

30
pack

Вам бонус

ВАЖНО

!!Акция!!

Alien_RageХит недели

RePack

Resident Evil 21

ИГРА 18+

pack

RePack

jed

!!Акция!!

Alien_Rage

RePack

fifa19

RePack

Assassins Creed: Odyssey

RePack

NEED FOR SPEED™ PAYBACK

3 сезон

9 сезон

Бесстыжие 9 сезон

Все сериалы

все сериалы на PB.wtf

RePack

FAR CRY 5
Ребята, катастрофически не хватает 1900р. для оплаты серверов за Октябрь (всвязи с блокировками трафик упал в 3 раза), 1-2р., выручайте.
  

Апостол / Apostle (Гарет Эванс) [2018, Ужасы, триллер, детектив, WEB-DLRip-AVC] MVO [NewStudio] pb.wtf

Апостол через торрент pb.wtf

Раздают: 2 [ 0 KB/s ]
Размер: 2.35 GB | Добавлен: 1 год 1 мес. назад | Торрент скачан:1218 раз
Скачать  

21-10-2018 01:38 Апостол Скачать торрент  

Апостол / Apostle
Год выпуска: 2018
Страна: США, Великобритания
Жанр: Ужасы, триллер, детектив
Продолжительность: 02:10:00
Перевод: Профессиональный многоголосый |
Субтитры: Русские (полные), Английские (полные, SDH)

Режиссер: Гарет Эванс

rating

В ролях:

Кристин Фросет, Дэн Стивенс, Люси Бойнтон, Майкл Шин, Билл Милнер, Марк Льюис Джонс, Элен Риз, Росс О Хеннесси, Пино Майелло

Описание:

1905 год. Томас Ричардсон отправляется на отдалённый остров, чтобы спасти сестру, похищенную тайной религиозной общиной. На месте герой столкнётся с тайнами и ложью, на которых строится община, и её члены горько пожалеют о том, что перешли дорогу этому человеку.

Качество: WEB-DLRip-AVC
Формат: MKV

Видео: 1024x428 (2.40:1), 24,000 fps, x264 ~1 769 kbps avg, 0.168 bit/pixel
Аудио#1: 48 kHz, AC3 Dolby Digital, 3/2 (L,C,R,l,r) + LFE ch, ~384.00 kbps avg | RUS (NewStudio)
Аудио#2: 48 kHz, AC3 Dolby Digital, 3/2 (L,C,R,l,r) + LFE ch, ~448.00 kbps avg | ENG
скриншот  скриншот  скриншот  

скриншот  скриншот  скриншот  

Общее
Уникальный идентификатор : 155168809942097068841648768377916927761 (0x74BC6CFDF7C42F23F98FACD2FE42AF11)
Полное имя : F:\OlLanDGroup\Apostle.2018.WEB-DLRip(AVC).OlLanDGroup.mkv
Формат : Matroska
Версия формата : Version 4 / Version 2
Размер файла : 2,35 Гбайт
Продолжительность : 2 ч. 10 м.
Общий поток : 2592 Кбит/сек
Название фильма : Apostle.2018 #TorpedoUK#
Дата кодирования : UTC 2018-10-21 00:59:30
Программа кодирования : mkvmerge v25.0.0 ('Prog Noir') 64-bit
Библиотека кодирования : libebml v1.3.6 + libmatroska v1.4.9

Видео
Идентификатор : 1
Формат : AVC
Формат/Информация : Advanced Video Codec
Профиль формата : High@L4.1
Параметр CABAC формата : Да
Параметр ReFrames формата : 10 кадров
Идентификатор кодека : V_MPEG4/ISO/AVC
Продолжительность : 2 ч. 9 м.
Битрейт : 1769 Кбит/сек
Ширина : 1024 пикселя
Высота : 428 пикселей
Соотношение сторон : 2,40:1
Режим частоты кадров : Постоянный
Частота кадров : 24,000 кадра/сек
Цветовое пространство : YUV
Субдискретизация насыщенности : 4:2:0
Битовая глубина : 8 бит
Тип развёртки : Прогрессивная
Бит/(Пиксели*Кадры) : 0.168
Размер потока : 1,60 Гбайт (68%)
Библиотека кодирования : x264 core 146 r2538 121396c
Настройки программы : cabac=1 / ref=10 / deblock=1:-2:-3 / analyse=0x3:0x113 / me=umh / subme=11 / psy=1 / psy_rd=0.96:0.06 / mixed_ref=1 / me_range=48 / chroma_me=1 / trellis=2 / 8x8dct=1 / cqm=0 / deadzone=21,11 / fast_pskip=1 / chroma_qp_offset=-3 / threads=6 / lookahead_threads=1 / sliced_threads=0 / nr=0 / decimate=1 / interlaced=0 / bluray_compat=0 / constrained_intra=0 / bframes=10 / b_pyramid=2 / b_adapt=2 / b_bias=0 / direct=3 / weightb=1 / open_gop=0 / weightp=2 / keyint=240 / keyint_min=24 / scenecut=40 / intra_refresh=0 / rc_lookahead=40 / rc=2pass / mbtree=0 / bitrate=1769 / ratetol=1.0 / qcomp=0.60 / qpmin=0 / qpmax=69 / qpstep=4 / cplxblur=20.0 / qblur=0.5 / vbv_maxrate=50000 / vbv_bufsize=62500 / nal_hrd=none / filler=0 / ip_ratio=1.40 / pb_ratio=1.30 / aq=1:1.00
Язык : English
Default : Да
Forced : Нет

Аудио #1
Идентификатор : 2
Формат : AC-3
Формат/Информация : Audio Coding 3
Расширение режима : CM (complete main)
Параметр Endianness формата : Big
Идентификатор кодека : A_AC3
Продолжительность : 2 ч. 10 м.
Вид битрейта : Постоянный
Битрейт : 384 Кбит/сек
Каналы : 6 каналов
Расположение каналов : Front: L C R, Side: L R, LFE
Частота : 48,0 КГц
Частота кадров : 31,250 кадров/сек (1536 spf)
Битовая глубина : 16 бит
Метод сжатия : С потерями
Размер потока : 357 Мбайт (15%)
Заголовок : MVO [NewStudio]
Язык : Russian
Default : Да
Forced : Нет

Аудио #2
Идентификатор : 3
Формат : AC-3
Формат/Информация : Audio Coding 3
Расширение режима : CM (complete main)
Параметр Endianness формата : Big
Идентификатор кодека : A_AC3
Продолжительность : 2 ч. 9 м.
Вид битрейта : Постоянный
Битрейт : 448 Кбит/сек
Каналы : 6 каналов
Расположение каналов : Front: L C R, Side: L R, LFE
Частота : 48,0 КГц
Частота кадров : 31,250 кадров/сек (1536 spf)
Битовая глубина : 16 бит
Метод сжатия : С потерями
Размер потока : 415 Мбайт (17%)
Заголовок : [Original]
Язык : English
Default : Нет
Forced : Нет

Текст #1
Идентификатор : 4
Формат : UTF-8
Идентификатор кодека : S_TEXT/UTF8
Идентификатор кодека/Информация : UTF-8 Plain Text
Продолжительность : 2 ч. 9 м.
Битрейт : 38 бит/сек
Count of elements : 815
Размер потока : 36,3 Кбайт (0%)
Заголовок : Full
Язык : Russian
Default : Нет
Forced : Нет

Текст #2
Идентификатор : 5
Формат : UTF-8
Идентификатор кодека : S_TEXT/UTF8
Идентификатор кодека/Информация : UTF-8 Plain Text
Продолжительность : 2 ч. 1 м.
Битрейт : 24 бит/сек
Count of elements : 907
Размер потока : 21,6 Кбайт (0%)
Заголовок : Full
Язык : English
Default : Нет
Forced : Нет

Текст #3
Идентификатор : 6
Формат : UTF-8
Идентификатор кодека : S_TEXT/UTF8
Идентификатор кодека/Информация : UTF-8 Plain Text
Продолжительность : 2 ч. 8 м.
Битрейт : 28 бит/сек
Count of elements : 1147
Размер потока : 27,0 Кбайт (0%)
Заголовок : SDH
Язык : English
Default : Нет
Forced : Нет

Меню
00:00:00.000 : en:1
00:05:14.105 : en:2
00:09:08.255 : en:3
00:15:54.703 : en:4
00:20:35.066 : en:5
00:24:38.851 : en:6
00:28:39.299 : en:7
00:31:59.415 : en:8
00:33:30.214 : en:9
00:37:30.037 : en:10
00:39:33.952 : en:11
00:45:11.664 : en:12
00:49:47.189 : en:13
00:50:47.082 : en:14
00:58:26.916 : en:15
01:06:52.212 : en:16
01:10:58.833 : en:17
01:15:55.713 : en:18
01:19:03.484 : en:19
01:21:41.475 : en:20

pb.wtf



Скачать Апостол через торрент http://pic1.kartinco.top/images/11/fa4zz.jpg Скачать фильм Апостол через торрент бесплантно в хорошем качестве Описание: 1905 год. Томас Ричардсон отправляется на отдалённый остров, чтобы спасти сестру, похищенную тайной религиозной общиной. На месте ... 10 10 26
Торрент: Зарегистрирован [2018-10-21 01:38] · скачан: 1 218 раз
Статус: √ проверено
Размер: 2.35 GB
Как cкачать? Как скачать Апостол через торрент | qTorrent

% Раздел Тема Автор DL S | L
Фильмы 2018 [DVDrip, WEB-DLRip, HDrip] (DUB, MVO) [ 1.46 GB ] Апостол / Apostle [2018 WEB-DLRip] MVO [NewStudio] bober100 Скачать
4 | 0
Фильмы (WEB-DL 720p, 1080p) [ 7.82 GB ] Апостол / Apostle [2018 WEB-DL 1080p] MVO [NewStudio] bober100 Скачать
1 | 0
Фильмы 2018 [DVDrip, WEB-DLRip, HDrip] (DUB, MVO) [ 2.18 GB ] Апостол / Apostle [2018 WEB-DLRip] MVO [NewStudio] bober100 Скачать
1 | 0
Фильмы без перевода [ 1.38 GB ] Апостол / Apostle [2018 WEB-DLRip-AVC] [Sub Rus] killermax2013 Скачать
1 | 0
Фильмы 2018 [DVDrip, WEB-DLRip, HDrip] (DUB, MVO) [ 1.46 GB ] Павел апостол Христа / Paul Apostle of Christ [2018 история BDRip] - [] Twi7ter Скачать
1 | 0
Фильмы [HD 720p, 1080p] (Хороший звук DUB, MVO) [ 5.28 GB ] Павел апостол Христа / Paul Apostle of Christ [2018 история BDRip-HEVC 1080p ] MVO [] bober100 Скачать
1 | 0
Фильмы 2018 [DVDrip, WEB-DLRip, HDrip] (DUB, MVO) [ 1.91 GB ] Павел апостол Христа / Paul Apostle of Christ [2018 история BDRip-AVC] DUB [] bober100 Скачать
1 | 0

28-11-2019 20:33  

Отключить всю рекламу на сайте

21-10-2018 09:54 Апостол Скачать торрент  

Забираю комент позже автору спс.pb.wtf



22-10-2018 19:23 Апостол Скачать торрент  

Сказка мутнаяpb.wtf



23-10-2018 08:13 Апостол Скачать торрент  

нормаpb.wtf



26-10-2018 08:57 Апостол Скачать торрент  

Редкостное мутево!!!pb.wtf



    Дорогой пользователь! Огромная просьба, поблагодарите релизера, оцените раздачу и оставьте свои комментарий, если Вы скачали Апостол через торрент бесплатно! Внесите свою лепту в развитие PiratBit!
    Комментировать посты могут только пользователи прошедшие не сложную регистрацию
    Показать сообщения:    

    Апостол через торрент
    Скачать бесплатно Апостол
    Апостол скачать торрент
    Апостол смотреть онлайн
    Cкачать фильм Апостол бесплатно
    Апостол скачать торрент в хорошем качестве
    Апостол смотреть онлайн бесплатно в хорошем качестве


    Вы не можете начинать темы
    Вы не можете отвечать на сообщения
    Вы не можете редактировать свои сообщения
    Вы не можете удалять свои сообщения
    Вы не можете голосовать в опросах
    Вы не можете прикреплять файлы к сообщениям
    Вы можете скачивать файлы