2 сезон

iTunes

MVO

1

2 сезон

iTunes

iTunes

1 сезон

RePack

30

Ultimate

ВАЖНО

ИГРА 18+

pack

RePack

MK11
pack

Легкие деньги

RePack

jed

RePack

fifa19

RePack

RDR2

RePack

NEED FOR SPEED™ PAYBACK

4 сезон

9 сезон

Бесстыжие 9 сезон

Все сериалы

все сериалы на PB.wtf

RePack

FAR CRY 5

Anonymous, доброй ночи, мы не успеваем собрать деньги на оплату серверов за декабрь и январь, помогите нам пожалуйста в это трудное время. В качестве благодарности мы отключим Вам всю рекламу на сайте (укажите свой ник в строку Ваше имя)!

×
  
Magnet ссылка

Выжженная земля / Scorched Earth (Питер Хауит) [2017, Фантастика, боевик, BDRip-AVC] 2xMVO [HDRezka Studio, Jaskier] pb.wtf

Выжженная земля через торрент pb.wtf

Размер: 2.26 GB | Добавлен: 2 года 3 мес. назад | Торрент скачан:461 раз
Скачать  

21-10-2018 01:47 Выжженная земля Скачать торрент  

Выжженная земля / Scorched Earth
Год выпуска: 2017
Страна: Китай, США
Жанр: Фантастика, боевик
Продолжительность: 01:33:55
Перевод:

Профессиональный (многоголосый) | HDRezka Studio
Профессиональный (многоголосый) | Jaskier

Субтитры: Английские (полные, SDH)

Режиссер: Питер Хауит

rating

В ролях:

Джина Карано (Gage), Сара Троер (Young Gage), Джон Ханна (Doc), Алиша Ньютон (Beatrice), Стефани Беннетт (Melena), Райан Роббинс (Thomas Jackson), Патрик Сабонгуй (Womack), Лувия Петерсен (Chavo), Патрик Гилмор (Sheriff Grubbs), Дэниэл Бэйкон (Bartender), Дин Джаггер III (Lear), Нэйтан Митчелл (Zee)
Описание:

Будущее, на планете случилась некая глобальная катастрофа, в результате которой погибли миллиарды людей. Охотница за головами, которая почти ничем не отличается от тех, за кем охотится, пытается найти и обезвредить самого опасного преступника нового мира. За это ей обещают солидный куш.

Качество: BDRip-AVC
Формат: MKV

Видео: 1024x554 (1.85:1), 23,976 fps, x264 ~2 347 kbps avg, 0.173 bit/pixel
Аудио#1: 48 kHz, AC3 Dolby Digital, 2 (L,R) ch, ~192.00 kbps avg | RUS (HDRezka Studio)
Аудио#2: 48 kHz, AC3 Dolby Digital, 3/2 (L,C,R,l,r) + LFE ch, ~448.00 kbps avg | RUS (Jaskier)
Аудио#3: 48 kHz, AC3 Dolby Digital, 3/2 (L,C,R,l,r) + LFE ch, ~448.00 kbps avg | ENG
скриншот  скриншот  скриншот  скриншот  скриншот  

Общее
Уникальный идентификатор : 34206044960489765562990662708445145918 (0x19BBD839770A5461445E85E953C16B3E)
Полное имя : F:\OlLanDGroup\Scorched.Earth.2018.BDRip(AVC).OlLanDGroup.mkv
Формат : Matroska
Версия формата : Version 4 / Version 2
Размер файла : 2,26 Гбайт
Продолжительность : 1 ч. 33 м.
Общий поток : 3437 Кбит/сек
Название фильма : Scorched.Earth.2018 #TorpedoUK#
Дата кодирования : UTC 2018-10-20 23:06:46
Программа кодирования : mkvmerge v25.0.0 ('Prog Noir') 64-bit
Библиотека кодирования : libebml v1.3.6 + libmatroska v1.4.9
Обложка : Yes
Attachments : small_cover_land.jpg / cover.jpg / cover_land.jpg / small_cover.jpg

Видео
Идентификатор : 1
Формат : AVC
Формат/Информация : Advanced Video Codec
Профиль формата : High@L4.1
Параметр CABAC формата : Да
Параметр ReFrames формата : 10 кадров
Идентификатор кодека : V_MPEG4/ISO/AVC
Продолжительность : 1 ч. 33 м.
Битрейт : 2347 Кбит/сек
Ширина : 1024 пикселя
Высота : 554 пикселя
Соотношение сторон : 1,85:1
Режим частоты кадров : Постоянный
Частота кадров : 23,976 (24000/1001) кадра/сек
Цветовое пространство : YUV
Субдискретизация насыщенности : 4:2:0
Битовая глубина : 8 бит
Тип развёртки : Прогрессивная
Бит/(Пиксели*Кадры) : 0.173
Размер потока : 1,54 Гбайт (68%)
Библиотека кодирования : x264 core 146 r2538 121396c
Настройки программы : cabac=1 / ref=10 / deblock=1:-3:-3 / analyse=0x3:0x113 / me=umh / subme=11 / psy=1 / psy_rd=0.99:0.04 / mixed_ref=1 / me_range=48 / chroma_me=1 / trellis=2 / 8x8dct=1 / cqm=0 / deadzone=21,11 / fast_pskip=1 / chroma_qp_offset=-3 / threads=6 / lookahead_threads=1 / sliced_threads=0 / nr=0 / decimate=1 / interlaced=0 / bluray_compat=0 / constrained_intra=0 / bframes=10 / b_pyramid=2 / b_adapt=2 / b_bias=0 / direct=3 / weightb=1 / open_gop=0 / weightp=2 / keyint=240 / keyint_min=23 / scenecut=40 / intra_refresh=0 / rc_lookahead=40 / rc=2pass / mbtree=0 / bitrate=2347 / ratetol=1.0 / qcomp=0.60 / qpmin=0 / qpmax=69 / qpstep=4 / cplxblur=20.0 / qblur=0.5 / vbv_maxrate=50000 / vbv_bufsize=62500 / nal_hrd=none / filler=0 / ip_ratio=1.40 / pb_ratio=1.30 / aq=1:1.00
Язык : English
Default : Да
Forced : Нет

Аудио #1
Идентификатор : 2
Формат : AC-3
Формат/Информация : Audio Coding 3
Расширение режима : CM (complete main)
Параметр Endianness формата : Big
Идентификатор кодека : A_AC3
Продолжительность : 1 ч. 33 м.
Вид битрейта : Постоянный
Битрейт : 192 Кбит/сек
Каналы : 2 канала
Расположение каналов : Front: L R
Частота : 48,0 КГц
Частота кадров : 31,250 кадров/сек (1536 spf)
Битовая глубина : 16 бит
Метод сжатия : С потерями
Размер потока : 129 Мбайт (6%)
Заголовок : MVO [HDRezka Studio]
Язык : Russian
Default : Да
Forced : Нет

Аудио #2
Идентификатор : 3
Формат : AC-3
Формат/Информация : Audio Coding 3
Расширение режима : CM (complete main)
Параметр Endianness формата : Big
Идентификатор кодека : A_AC3
Продолжительность : 1 ч. 33 м.
Вид битрейта : Постоянный
Битрейт : 448 Кбит/сек
Каналы : 6 каналов
Расположение каналов : Front: L C R, Side: L R, LFE
Частота : 48,0 КГц
Частота кадров : 31,250 кадров/сек (1536 spf)
Битовая глубина : 16 бит
Метод сжатия : С потерями
Размер потока : 301 Мбайт (13%)
Заголовок : MVO [Jaskier]
Язык : Russian
Default : Нет
Forced : Нет

Аудио #3
Идентификатор : 4
Формат : AC-3
Формат/Информация : Audio Coding 3
Расширение режима : CM (complete main)
Параметр Endianness формата : Big
Идентификатор кодека : A_AC3
Продолжительность : 1 ч. 33 м.
Вид битрейта : Постоянный
Битрейт : 448 Кбит/сек
Каналы : 6 каналов
Расположение каналов : Front: L C R, Side: L R, LFE
Частота : 48,0 КГц
Частота кадров : 31,250 кадров/сек (1536 spf)
Битовая глубина : 16 бит
Метод сжатия : С потерями
Размер потока : 301 Мбайт (13%)
Заголовок : [Original]
Язык : English
Default : Нет
Forced : Нет

Текст #1
Идентификатор : 5
Формат : UTF-8
Идентификатор кодека : S_TEXT/UTF8
Идентификатор кодека/Информация : UTF-8 Plain Text
Продолжительность : 1 ч. 28 м.
Битрейт : 43 бит/сек
Count of elements : 1009
Размер потока : 28,2 Кбайт (0%)
Заголовок : Full
Язык : English
Default : Нет
Forced : Нет

Текст #2
Идентификатор : 6
Формат : UTF-8
Идентификатор кодека : S_TEXT/UTF8
Идентификатор кодека/Информация : UTF-8 Plain Text
Продолжительность : 1 ч. 29 м.
Битрейт : 46 бит/сек
Count of elements : 1204
Размер потока : 30,7 Кбайт (0%)
Заголовок : SDH
Язык : English
Default : Нет
Forced : Нет

Меню
00:00:00.000 : en:Chapter 01
00:12:18.028 : en:Chapter 02
00:24:05.902 : en:Chapter 03
00:37:14.857 : en:Chapter 04
00:50:44.916 : en:Chapter 05
01:01:09.082 : en:Chapter 06
01:14:11.029 : en:Chapter 07
01:28:41.983 : en:Chapter 08

pb.wtf



Скачать Выжженная земля через торрент http://i79.fastpic.ru/big/2018/1021/51/6cd53a4179bb31fcf1afa1d3edc04851.jpg Скачать фильм Выжженная земля через торрент бесплантно в хорошем качестве Описание: Будущее, на планете случилась некая глобальная катастрофа, в результате которой погибли миллиарды людей. Охотница за головами, ... 9.9 10 15
Торрент: Зарегистрирован [2018-10-21 01:47] · скачан: 461 раз
Статус: √ проверено
Размер: 2.26 GB
Как cкачать? Как скачать Выжженная земля через торрент | UTorrent

% Раздел Тема Автор DL S | L
Фильмы [HD 720p, 1080p] (Хороший звук DUB, MVO) [ 8.71 GB ] Выжженная земля / Scorched Earth [2017 BDRip 1080p] MVO [Jaskier] bober100 Скачать
1 | 0
Фильмы [HD 720p, 1080p] (Хороший звук DUB, MVO) [ 4.78 GB ] Выжженная земля / Scorched Earth [2017 BDRip 720p] MVO [Jaskier] bober100 Скачать
1 | 0
Фильмы 2017 [DVDrip, WEB-DLRip, HDrip] (DUB, MVO) [ 1.46 GB ] Выжженная земля / Scorched Earth [2017 BDRip] MVO [Jaskier] bober100 Скачать
1 | 0
Фильмы [HD 720p, 1080p] (Хороший звук DUB, MVO) [ 8.99 GB ] Выжженная земля / Scorched Earth [2017 BDRip 1080p] MVO [HDrezka Studio] -Lexx- Скачать
1 | 0
Научно-популярные фильмы [ 1.67 GB ] Вермахт в России 1941-1945 / The Wehrmacht in Russia 1941-1945 / Серии: 1-3 из 3 [1999 документальный военная хроника DVDRip] markfiter Скачать
1 | 0

28-11-2019 20:33  

Отключить всю рекламу на сайте

    Дорогой пользователь! Огромная просьба, поблагодарите релизера, оцените раздачу и оставьте свои комментарий, если Вы скачали Выжженная земля через торрент бесплатно! Внесите свою лепту в развитие PiratBit!
    Комментировать посты могут только пользователи прошедшие не сложную регистрацию
    Показать сообщения:    

    Выжженная земля через торрент
    Скачать бесплатно Выжженная земля
    Выжженная земля скачать торрент
    Выжженная земля смотреть онлайн
    Cкачать фильм Выжженная земля бесплатно
    Выжженная земля скачать торрент в хорошем качестве
    Выжженная земля смотреть онлайн бесплатно в хорошем качестве


    Вы не можете начинать темы
    Вы не можете отвечать на сообщения
    Вы не можете редактировать свои сообщения
    Вы не можете удалять свои сообщения
    Вы не можете голосовать в опросах
    Вы не можете прикреплять файлы к сообщениям
    Вы можете скачивать файлы