Доктор Стрэндж

Лицензия

Добыча

Дубляж

Дом дракона

1 сезон

Тор

Дубляж

В эфире

Дубляж

Там, где раки поют

MVO

Властелин колец

1 сезон

Ultimate

pack

Рекомендуем

30

Пиратка

ВАЖНО

ВАЖНО

Ghostwire

Пиратка

jed

RePack

nioh2

RePack

RDR2

RePack

NEED FOR SPEED™ PAYBACK

RePack

скачать торрент

Кинопоиск HD

Острые козырьки 6 сезон

6 сезон

FAR CRY 6

RePack

скачать торрент

Лицензия

скачать торрент

MVO

1

1 сезон

скачать торрент

1 сезон

скачать торрент

Лицензия

  

Барбара / Barbara (Кристиан Петцольд) [2012 г., Драма, HDRip, Профессиональный многоголосый "Первый канал"] [Custom version]

Барбара через торрент pb.wtf

Размер: 706 MB | Добавлен: 4 года 1 мес. назад | Торрент скачан:2 раза
Смотреть онлайн | Скачать   

21-10-2018 18:55 Барбара Скачать торрент  

Барбара / Barbara
Год выпуска: 2012
Страна: Германия / Schramm Film Koerner & Weber,Zweites Deutsches Fernsehen (ZDF),ARTE
Жанр: Драма
Продолжительность: 01:45:05
Перевод: Профессиональный многоголосый (Первый канал)

Режиссер: Кристиан Петцольд

rating

В ролях: Нина Хосс, Рональд Церфельд, Райнер Бок, Кристина Хеке, Клаудиа Гайслер-Бадинг, Петер Вайс, Каролин Хаупт, Дениц Петцольд, Роза Энскат, Ясна Фритци Бауэр

Описание: Красивая девушка из ГДР подала заявление на выезд из страны и за это сослана в провинцию. В свободном мире ее ждет возлюбленный, который уже разработал для нее план побега на лодке через Балтийское море. А пока Барбара живет под надзором спецслужб и работает в больнице в отделе педиатрической хирургии, где вместе со своим коллегой Андре пытается помочь юной беженке из трудовой колонии — ярой противнице режима.

Качество: HDRip
Формат: AVI
Видео кодек: XviD
Аудио кодек: MP3
Видео: 640x368 (1.74:1), 24 fps, XviD MPEG-4 ~797 kbps avg, 0.14 bit/pixel
Аудио: 48 kHz, MPEG Layer 3, 2 ch, ~128.00 kbps avg
скриншот   скриншот   скриншот   скриншот  

Общее
Полное имя : F:\ФИЛЬМЫ\Барбара.2012.HDRip.avi
Формат : AVI
Формат/Информация : Audio Video Interleave
Размер файла : 706 Мбайт
Продолжительность : 1 ч. 45 м.
Общий поток : 939 Кбит/сек
Название фильма : Барбара.2012.HDRip.avi
Программа кодирования : Lavf56.40.101

Видео
Идентификатор : 0
Формат : MPEG-4 Visual
Профиль формата : Advanced [email protected]
Настройки формата : BVOP2
Параметр BVOP формата : 2
Параметр QPel формата : Нет
Параметр GMC формата : Без точки перехода
Параметр матрицы формата : Default (MPEG)
Режим смешивания : Сжатый битовый поток
Идентификатор кодека : XVID
Идентификатор кодека/Подсказка : XviD
Продолжительность : 1 ч. 45 м.
Битрейт : 798 Кбит/сек
Ширина : 640 пикселей
Высота : 368 пикселей
Соотношение сторон : 1,739
Частота кадров : 24,000 кадра/сек
Цветовое пространство : YUV
Субдискретизация насыщенности : 4:2:0
Битовая глубина : 8 бит
Тип развёртки : Прогрессивная
Метод сжатия : С потерями
Бит/(Пиксели*Кадры) : 0.141
Размер потока : 600 Мбайт (85%)
Библиотека кодирования : XviD 67

Аудио
Идентификатор : 1
Формат : MPEG Audio
Версия формата : Version 1
Профиль формата : Layer 3
Настройки формата : Joint stereo / MS Stereo
Идентификатор кодека : 55
Идентификатор кодека/Подсказка : MP3
Продолжительность : 1 ч. 45 м.
Вид битрейта : Постоянный
Битрейт : 128 Кбит/сек
Каналы : 2 канала
Частота : 48,0 КГц
Метод сжатия : С потерями
Размер потока : 96,2 Мбайт (14%)
Выравнивание : Соединение по промежуткам
Продолжительность промежутка : 24 мс. (0,58 видеокадр)
Библиотека кодирования : LAME3.98.2ЄЄЄЄЄЄЄЄЄЄ




Скачать Барбара через торрент https://pic1.kartinco.top/images/11/o2l35.jpg Скачать, смотреть онлайн Барбара бесплантно в хорошем качестве Описание: Красивая девушка из ГДР подала заявление на выезд из страны и за это сослана в провинцию. В свободном мире ее ждет возлюбленный, ... 10 10 1
Торрент: Зарегистрирован [2018-10-21 18:55] · скачан: 2 раз
Статус: √ проверено
Размер: 706 MB
Как cкачать? Как скачать Барбара через торрент | UTorrent

% Раздел Тема Автор DL S | L
Фильмы [HD 720p, 1080p] (Хороший звук DUB, MVO) [ 14.47 GB ] Барбара / Barbara | MVO | 1080p msltel Скачать
1 | 0
Фильмы [HD 720p, 1080p] (Хороший звук DUB, MVO) [ 4.57 GB ] Барбара / Barbara | MVO | 720p msltel Скачать
1 | 0
Фильмы 2012 [ 2.46 GB ] Барбара / Barbara | MVO | BDRip (AVC msltel Скачать
1 | 0

28-11-2019 20:33  


Отключить вcю реклaмy на сайте, в т.ч. и в плеере онлайн просмотра!

    Дорогой пользователь! Огромная просьба, поблагодарите релизера, оцените раздачу и оставьте свои комментарий, если Вы скачали Барбара через торрент бесплатно!!
    Комментировать посты могут только пользователи прошедшие не сложную регистрацию
    Показать сообщения:    


    Барбара через торрент
    Скачать бесплатно Барбара
    Барбара скачать торрент
    Барбара смотреть онлайн
    Cкачать фильм Барбара бесплатно
    Барбара скачать торрент в хорошем качестве
    Барбара смотреть онлайн бесплатно в хорошем качестве
    Вы не можете начинать темы
    Вы не можете отвечать на сообщения
    Вы не можете редактировать свои сообщения
    Вы не можете удалять свои сообщения
    Вы не можете голосовать в опросах
    Вы не можете прикреплять файлы к сообщениям
    Вы можете скачивать файлы
    Барбара / Barbara [2012 г., Драма, HDRip, Профессиональный многоголосый "Первый канал"] [Custom version] смотреть онлайн, скачать торрент picoco.icu