Ссылка на приватное зеркало нашего сайта всего за 1$. Внимание количество ограничено!!!

2 сезон

iTunes

1 сезон

1

2 сезон

2 сезон

iTunes

1 сезон

RePack

30

Новинка

ВАЖНО

ИГРА 18+

pack

RePack

MK11
pack

Забери бонус

RePack

jed

!!Акция!!

Alien_Rage

RePack

fifa19

RePack

Assassins Creed: Odyssey

RePack

NEED FOR SPEED™ PAYBACK

4 сезон

9 сезон

Бесстыжие 9 сезон

Все сериалы

все сериалы на PB.wtf

RePack

FAR CRY 5
  

Слепые пятна / Blindspotting (Карлос Лопес Эстрада) [2018, драма, комедия, WEB-DL 1080p] DUB [iTunes] pb.wtf

Слепые пятна через торрент pb.wtf

Размер: 3.73 GB | Добавлен: 2 года 1 мес. назад | Торрент скачан:287 раз
Скачать  

22-10-2018 03:00 Слепые пятна Скачать торрент  

Слепые пятна / Blindspotting
Год выпуска: 2018
Страна: США
Жанр: драма, комедия
Продолжительность: 01:35:24
Перевод: Дублированный | iTunes
Субтитры: отсутствуют

Режиссер: Карлос Лопес Эстрада

rating

В ролях:

Давид Диггс, Янина Гаванкар, Жасмин Сепас Джонс, Итэн Эмбри, Тиша Кэмпбелл, Уткарш Амбудкар, Кевин Кэрролл, Ньямби Ньямби, Джон Чаффин

Описание:

Коллин ждёт не дождётся окончания срока своих исправительных работ, готовится к спокойной семейной жизни, пытается вразумить безрассудного лучшего друга Майлза, который сам нарывается на проблемы с законом. Но за несколько дней до долгожданной свободы Коллин становится единственным свидетелем того, как полицейский убивает безоружного афроамериканца.

Качество: WEB-DL 1080p
Формат: MKV

Видео: MPEG-4 AVC, 1920x1038, 5205 Kbit/s, 24 fps
Аудио: 48 kHz, AC3, 5.1, 384 Kbps | iTunes | RUS |
скриншот  скриншот  скриншот  скриншот  скриншот  

General
Unique ID : 232352760113416164380117062676105832883 (0xAECD838AC75A47687CFFAA0758AEA9B3)
Complete name : D:Video111Blindspotting.2018.1080p.WEB-DL.TeamHD.mkv
Format : Matroska
Format version : Version 4
File size : 3.73 GiB
Duration : 1 h 35 min
Overall bit rate : 5 591 kb/s
Movie name : Blindspotting 2018 TeamHD-селезень
Encoded date : UTC 2018-10-21 10:28:05
Writing application : mkvmerge v23.0.0 ('The Bride Said No') 64-bit
Writing library : libebml v1.3.6 + libmatroska v1.4.9

Video
ID : 1
Format : AVC
Format/Info : Advanced Video Codec
Format profile : High@L4
Format settings : CABAC / 4 Ref Frames
Format settings, CABAC : Yes
Format settings, ReFrames : 4 frames
Codec ID : V_MPEG4/ISO/AVC
Duration : 1 h 35 min
Bit rate : 5 205 kb/s
Width : 1 920 pixels
Height : 1 038 pixels
Display aspect ratio : 1.85:1
Frame rate mode : Constant
Frame rate : 24.000 FPS
Color space : YUV
Chroma subsampling : 4:2:0
Bit depth : 8 bits
Scan type : Progressive
Bits/(Pixel*Frame) : 0.109
Stream size : 3.47 GiB (93%)
Language : English
Default : Yes
Forced : No
Color range : Limited
Color primaries : BT.709
Transfer characteristics : BT.709
Matrix coefficients : BT.709

Audio
ID : 2
Format : AC-3
Format/Info : Audio Coding 3
Commercial name : Dolby Digital
Codec ID : A_AC3
Duration : 1 h 35 min
Bit rate mode : Constant
Bit rate : 384 kb/s
Channel(s) : 6 channels
Channel layout : L R C LFE Ls Rs
Sampling rate : 48.0 kHz
Frame rate : 31.250 FPS (1536 SPF)
Bit depth : 16 bits
Compression mode : Lossy
Stream size : 262 MiB (7%)
Title : iTunes
Language : Russian
Service kind : Complete Main
Default : Yes
Forced : Yes

Menu
00:00:00.000 : en:Глава 1
00:02:27.625 : en:Глава 2
00:08:07.250 : en:Глава 3
00:11:56.582 : en:Глава 4
00:18:17.164 : en:Глава 5
00:21:55.122 : en:Глава 6
00:27:56.287 : en:Глава 7
00:32:53.620 : en:Глава 8
00:37:51.536 : en:Глава 9
00:47:23.286 : en:Глава 10
00:54:22.286 : en:Глава 11
01:00:15.952 : en:Глава 12
01:10:32.035 : en:Глава 13
01:16:50.992 : en:Глава 14
01:20:12.867 : en:Глава 15
01:28:42.242 : en:Глава 16

pb.wtf



Скачать Слепые пятна через торрент http://img11.lostpic.net/2018/08/11/7fbe498f41de9bb6380c96b5f404b77e.jpg Скачать фильм Слепые пятна через торрент бесплантно в хорошем качестве Описание: Коллин ждёт не дождётся окончания срока своих исправительных работ, готовится к спокойной семейной жизни, пытается вразумить ... 9.6 10 10
Info! Золотая раздача, скачанное не засчитывается.
Торрент: Зарегистрирован [2018-10-22 03:00] · скачан: 287 раз
Статус: √ проверено
Размер: 3.73 GB
Как cкачать? Как скачать Слепые пятна через торрент | qTorrent

% Раздел Тема Автор DL S | L
T Ultra HD (UHD: 2K, 4K, 8K) — видео сверхвысокой чёткости [ 17.96 GB ] Слепые пятна / Blindspotting [2018 UHD WEBRip 2160p] [ ] sheker187 Скачать
1 | 0
Фильмы [HD 720p, 1080p] (Хороший звук DUB, MVO) [ 6.14 GB ] Слепые пятна / Blindspotting [2018 BDRip 720p] bober100 Скачать
1 | 0
Фильмы [HD 720p, 1080p] (Хороший звук DUB, MVO) [ 15 GB ] Слепые пятна / Blindspotting [2018 BDRip 1080p] bober100 Скачать
1 | 0
Фильмы (Blu-ray, BD-Remux, HDDVD) [ 26.74 GB ] Слепые пятна / Blindspotting [2018 BD Remux 1080p] bober100 Скачать
1 | 0
Фильмы 2018 [DVDrip, WEB-DLRip, HDrip] (DUB, MVO) [ 1.42 GB ] Слепые пятна / Blindspotting [2018 BDRip] - Twi7ter Скачать
7 | 0
Фильмы 2018 [DVDrip, WEB-DLRip, HDrip] (DUB, MVO) [ 1.8 GB ] Слепые пятна / Blindspotting [2018 WEB-DLRip-AVC] - ExKinoRay Enigma2010 Скачать
1 | 0

28-11-2019 20:33  

Отключить всю рекламу на сайте

22-10-2018 05:55 Слепые пятна Скачать торрент  

я иногда поражаюсь..... Вроде читаешь такой описание-
"Коллин ждёт не дождётся окончания срока своих исправительных работ, готовится к спокойной семейной жизни, пытается вразумить безрассудного лучшего друга Майлза, который сам нарывается на проблемы с законом. Но за несколько дней до долгожданной свободы Коллин становится единственным свидетелем того, как полицейский убивает безоружного афроамериканца."
а потом -Жанр- драма, КОМЕДИЯ....pb.wtf



22-10-2018 06:32 Слепые пятна Скачать торрент  

лохматый негрpb.wtf



11-11-2018 04:04 Слепые пятна Скачать торрент  

я ЭТО посмотрел... и больше так не буду... pb.wtf



    Дорогой пользователь! Огромная просьба, поблагодарите релизера, оцените раздачу и оставьте свои комментарий, если Вы скачали Слепые пятна через торрент бесплатно! Внесите свою лепту в развитие PiratBit!
    Комментировать посты могут только пользователи прошедшие не сложную регистрацию
    Показать сообщения:    

    Слепые пятна через торрент
    Скачать бесплатно Слепые пятна
    Слепые пятна скачать торрент
    Слепые пятна смотреть онлайн
    Cкачать фильм Слепые пятна бесплатно
    Слепые пятна скачать торрент в хорошем качестве
    Слепые пятна смотреть онлайн бесплатно в хорошем качестве


    Вы не можете начинать темы
    Вы не можете отвечать на сообщения
    Вы не можете редактировать свои сообщения
    Вы не можете удалять свои сообщения
    Вы не можете голосовать в опросах
    Вы не можете прикреплять файлы к сообщениям
    Вы можете скачивать файлы