новый адрес
Мега распродажа FORZA HORIZON 4 ULTIMATE+ВСЕ DLC+ОНЛАЙН всего за 499р. 349 руб. (супер цена). Внимание количество ограничено!!!

iTunes

1+1

iTunes

мы

iTunes

1

iTunes

Чернобыль

iTunes

Ральф против интернета

Лицензия

ПШазам

Лицензия

Игра престолов

Лицензия

30
pack

ВАЖНО

!!Акция!!

Alien_RageХит недели

RePack

Resident Evil 21

ИГРА 18+

pack

RePack

Metro:Exodus

!!Акция!!

Alien_Rage

RePack

fifa19

RePack

Assassins Creed: Odyssey

RePack

NEED FOR SPEED™ PAYBACK

3 сезон

9 сезон

Бесстыжие 9 сезон

Все сериалы

все сериалы на PB.wtf

RePack

FAR CRY 5
Ребята, катастрофически не хватает 1900р. для оплаты серверов за Октябрь (всвязи с блокировками трафик упал в 3 раза), 1-2р., выручайте.
  

В бой идут одни «старики» (Леонид Быков) [1973, СССР, драма, комедия, военный, BDRip 720p от AVP Studio] [В цвете] pb.wtf

В бой идут одни «старики» через торрент pb.wtf

Размер: 2.18 GB | Добавлен: 1 год назад | Торрент скачан:40 раз
Скачать  

22-10-2018 10:18 В бой идут одни «старики» Скачать торрент  

В бой идут одни «старики»
Год выпуска: 1973
Страна: СССР
Студии: Киностудия им. А. П. Довженко

Жанр: драма, комедия, военный
Продолжительность: 01:32:20
Субтитры: нет

Режиссер: Леонид Быков

В ролях:
Леонид Быков, Сергей Подгорный, Сергей Иванов, Рустам Сагдуллаев, Евгения Симонова, Ольга Матешко, Владимир Талашко, Виктор Мирошниченко, Алексей Смирнов, Алим Федоринский, Вано Янтбелидзе, Александр Немченко, Вилорий Пащенко, Юрий Саранцев, Валентин Макаров, Леонид Марченко, Борис Болдыревский, Иван Реутов, Сергей Зайонц, Григорий Гладий...
Полный список актёров

Описание:
Эта эскадрилья стала "поющей" - так капитан Титаренко (Быков) подбирал себе новичков. Его "старикам" было не больше двадцати, но "желторотиков", пополнение из летных училищ ускоренного выпуска, в бой все равно, по возможности, не пускали. Им еще многое предстояло испытать - и жар боев, и радость первой победы над врагом, и величие братства, скрепленного кровью, и первую любовь, и горечь утраты. И настанет день, когда по команде "в бой идут одни старики" бывшие желторотики бросятся к своим самолетам...

Исходник: Blu-ray 1080p
Тип релиза:BDRip 720p
Контейнер: MKV

Видео: 1012x720 (1,406:1), 24,000 кадров/сек, H264 ~ 2945 kbps avg, 0.168 bit/pixel
Аудио: 48 kHz, Dolby Digital AC3 5.1, 448 kbps

Раздача от:
Общее
Полное имя : V.boy.idut.odni.«stariki».1973.BDRip-720p_[New-team]_by_AVP_Studio.mkv
Формат : Matroska
Версия формата : Version 2
Размер файла : 2,18 Гбайт
Продолжительность : 1 ч. 31 м.
Общий поток : 3394 Кбит/сек
Дата кодирования : UTC 2018-10-20 07:17:34
Программа кодирования : mkvmerge v6.1.0 ('Old Devil') built on Mar 4 2013 09:10:42
Библиотека кодирования : libebml v1.3.0 + libmatroska v1.4.0

Видео
Идентификатор : 1
Формат : AVC
Формат/Информация : Advanced Video Codec
Профиль формата : High@L4.1
Настройки формата : CABAC / 8 Ref Frames
Параметр CABAC формата : Да
Параметр RefFrames формата : 8 кадров
Идентификатор кодека : V_MPEG4/ISO/AVC
Продолжительность : 1 ч. 31 м.
Битрейт : 2945 Кбит/сек
Ширина : 1012 пикселей
Высота : 720 пикселей
Соотношение сторон : 1,406
Режим частоты кадров : Постоянный
Частота кадров : 24,000 кадра/сек
Цветовое пространство : YUV
Субдискретизация насыщенности : 4:2:0
Битовая глубина : 8 бит
Тип развёртки : Прогрессивная
Бит/(Пиксели*Кадры) : 0.168
Размер потока : 1,85 Гбайт (85%)
Библиотека кодирования : x264 core 157 r2932 303c484
Настройки программы : cabac=1 / ref=8 / deblock=1:-3:-3 / analyse=0x3:0x133 / me=umh / subme=10 / psy=1 / psy_rd=1.00:0.00 / mixed_ref=1 / me_range=32 / chroma_me=1 / trellis=2 / 8x8dct=1 / cqm=0 / deadzone=21,11 / fast_pskip=1 / chroma_qp_offset=-2 / threads=6 / lookahead_threads=1 / sliced_threads=0 / nr=0 / decimate=0 / interlaced=0 / bluray_compat=0 / constrained_intra=0 / bframes=8 / b_pyramid=2 / b_adapt=2 / b_bias=0 / direct=3 / weightb=1 / open_gop=0 / weightp=2 / keyint=240 / keyint_min=24 / scenecut=40 / intra_refresh=0 / rc=2pass / mbtree=0 / bitrate=2945 / ratetol=1.0 / qcomp=0.60 / qpmin=0 / qpmax=69 / qpstep=4 / cplxblur=20.0 / qblur=0.5 / ip_ratio=1.40 / pb_ratio=1.30 / aq=1:1.00
Default : Да
Forced : Нет

Аудио
Идентификатор : 2
Формат : AC-3
Формат/Информация : Audio Coding 3
Коммерческое название : Dolby Digital
Идентификатор кодека : A_AC3
Продолжительность : 1 ч. 31 м.
Вид битрейта : Постоянный
Битрейт : 448 Кбит/сек
Каналы : 6 каналов
Channel layout : L R C LFE Ls Rs
Частота : 48,0 КГц
Частота кадров : 31,250 кадров/сек (1536 SPF)
Битовая глубина : 16 бит
Метод сжатия : С потерями
Размер потока : 294 Мбайт (13%)
Default : Да
Forced : Нет
pb.wtf



Скачать В бой идут одни «старики» через торрент http://picplus.ru/img/1810/22/1d6118ee.png Скачать фильм В бой идут одни «старики» через торрент бесплантно в хорошем качестве Описание:Эта эскадрилья стала "поющей" - так капитан Титаренко (Быков) подбирал себе новичков. Его "старикам" было не больше двадцати, но ... 10 10 2
Info! Золотая раздача, скачанное не засчитывается.
Торрент: Зарегистрирован [2018-10-22 10:18] · скачан: 40 раз
Статус: √ проверено
Размер: 2.18 GB
Как cкачать? Как скачать В бой идут одни «старики» через торрент | qTorrent

% Раздел Тема Автор DL S | L
Кино СССР [ 1.46 GB ] В бой идут одни «старики» [1973 СССР военный BDRip-AVC от AVP Studio] [В цвете] AVP Studio Скачать
2 | 0
Кино СССР [ 4.37 GB ] В бой идут одни «старики» [1973 СССР военный BDRip 1080p от AVP Studio] [В цвете] AVP Studio Скачать
1 | 0
Кино СССР [ 1.09 GB ] В бой идут одни «старики» [1973 СССР военный BDRip от AVP Studio] [В цвете] AVP Studio Скачать
1 | 0
Наши фильмы (HD, WEB-DL 720p, 1080p) [ 11.5 GB ] В бой идут одни «старики» [Цветная версия] [1973 военный BDRip 1080p] Original + Sub Seedtank Скачать
1 | 0
Наши фильмы (Blu-ray, BD-Remux, HDDVD) [ 19.06 GB ] В бой идут одни «старики» [1973 Военный BD Remux Оригинальный] Бумер Скачать
1 | 0
Наши фильмы (HD, WEB-DL 720p, 1080p) [ 5.78 GB ] В бой идут одни «старики» [Цветная версия] [1973 военный BDRip 720p] .::Sergey::. Скачать
1 | 0
Кино СССР [ 1.46 GB ] В бой идут одни «старики» [1973 военный BDRip] |Цветная версия| markfiter Скачать
2 | 0


>> Регистрируемся здесь <<






Отзывы и комментарии о схеме читаем и пишем здесь: ---> Отзывы и комментарии о схеме

Новые благодарочки в телеграм довольных пользователей:
скриншот   скриншот   скриншот   скриншот   скриншот

22-10-2018 11:31 В бой идут одни «старики» Скачать торрент  

был когда то старый аркадный авиасимулятор и на русском назывался так же. может кто помнит его тру название?pb.wtf



    Дорогой пользователь! Огромная просьба, поблагодарите релизера, оцените раздачу и оставьте свои комментарий, если Вы скачали В бой идут одни «старики» через торрент бесплатно! Внесите свою лепту в развитие PiratBit!
    Комментировать посты могут только пользователи прошедшие не сложную регистрацию
    Показать сообщения:    

    В бой идут одни «старики» через торрент
    Скачать бесплатно В бой идут одни «старики»
    В бой идут одни «старики» скачать торрент
    В бой идут одни «старики» смотреть онлайн
    Cкачать фильм В бой идут одни «старики» бесплатно
    В бой идут одни «старики» скачать торрент в хорошем качестве
    В бой идут одни «старики» смотреть онлайн бесплатно в хорошем качестве


    Вы не можете начинать темы
    Вы не можете отвечать на сообщения
    Вы не можете редактировать свои сообщения
    Вы не можете удалять свои сообщения
    Вы не можете голосовать в опросах
    Вы не можете прикреплять файлы к сообщениям
    Вы можете скачивать файлы