Ссылка на приватное зеркало всего за 1$. Внимание количество ограничено!!!

OK

1+1

iTunes

мы

OK

1

WEB-DLRip

Джокер

Пифагор

Ведьмак / The Witcher сериал

Лицензия

ПШазам

ОК

Оно 2

iTunes

30
pack

Вам бонус

ВАЖНО

!!Акция!!

Alien_RageХит недели

RePack

Resident Evil 21

ИГРА 18+

pack

RePack

jed

!!Акция!!

Alien_Rage

RePack

fifa19

RePack

Assassins Creed: Odyssey

RePack

NEED FOR SPEED™ PAYBACK

4 сезон

9 сезон

Бесстыжие 9 сезон

Все сериалы

все сериалы на PB.wtf

RePack

FAR CRY 5
  

Дурная кровь / Bad Blood (Дэвид Палбрук) [2017, Триллер, WEB-DL 720p] MVO ["Синема УС"] pb.wtf

Дурная кровь через торрент pb.wtf

Размер: 3.29 GB | Добавлен: 1 год 2 мес. назад | Торрент скачан:30 раз
Скачать  

22-10-2018 10:35 Дурная кровь Скачать торрент  

Дурная кровь / Bad BloodГод выпуска: 2017
Страна: Австралия
Жанр: Триллер
Продолжительность: 01:32:05
Перевод: Любительский (многоголосый) | "Синема УС"
Субтитры: отсутствуют

Режиссер: Дэвид Палбрук

rating

В ролях:

Завиер Сэмюэл, Морган Гриффин, Роб Макферсон, Тесс Фаулер, Елена Карапетис, Патрик Фрост, Крис Дункан, Марк Сатурно, Анна Стин, Брендан Рок

Описание:

Кэрри любит своего жениха Винсента, красивого и успешного писателя. А Винсент без ума от Кэрри, она - всё, о чём он когда-либо мечтал. Однако, он скрывает от нее страшную тайну своего прошлого. Вдобавок ко всему он начинает каждый день сталкиваться со странными событиями. Будто кто-то следит за каждым его шагом. Кто следит за ним? Чего он хочет? Решив немного отвлечься от суеты будней, Винсент зовет Кэрри за город на выходные. Эта поездка может поставить под угрозу их счастливые отношения, и, возможно, даже их жизни.

Качество: WEB-DL 720p
Формат: MKV

Видео: h.264,4 733 kb/s, 1280x720
Аудио#1: Русский, (AC3, 2 ch, 384 Кбит/с)
скриншот  скриншот  скриншот  

Общее
Уникальный идентификатор : 237759141173733747332659251183674430563 (0xB2DEBEB54B4ADD4DABC6C6DD243B9463)
Полное имя : C:\Bad.Blood.2O17.P.WEB-DL.72Op_KOSHARA.mkv
Формат : Matroska
Версия формата : Version 2
Размер файла : 3,29 Гбайт
Продолжительность : 1 ч. 32 м.
Режим общего битрейта : Переменный
Общий поток : 5119 Кбит/сек
Дата кодирования : UTC 2018-10-21 16:40:56
Программа кодирования : mkvmerge v8.3.0 ('Over the Horizon') 64bit
Библиотека кодирования : libebml v1.3.1 + libmatroska v1.4.2

Видео
Идентификатор : 1
Формат : AVC
Формат/Информация : Advanced Video Codec
Профиль формата : High@L4.1
Параметр CABAC формата : Да
Параметр RefFrames формата : 4 кадра
Идентификатор кодека : V_MPEG4/ISO/AVC
Продолжительность : 1 ч. 32 м.
Вид битрейта : Переменный
Битрейт : 4733 Кбит/сек
Максимальный битрейт : 5500 Кбит/сек
Ширина : 1280 пикселей
Высота : 720 пикселей
Соотношение сторон : 16:9
Режим частоты кадров : Постоянный
Частота кадров : 23,976 (24000/1001) кадра/сек
Стандарт вещания : Component
Цветовое пространство : YUV
Субдискретизация насыщенности : 4:2:0
Битовая глубина : 8 бит
Тип развёртки : Прогрессивная
Бит/(Пиксели*Кадры) : 0.210
Размер потока : 2,98 Гбайт (91%)
Default : Да
Forced : Нет
Цветовой диапазон : Limited
Основные цвета : BT.709
Характеристики трансфера : BT.709
Коэффициенты матрицы : BT.709

Аудио
Идентификатор : 2
Формат : AC-3
Формат/Информация : Audio Coding 3
Расширение режима : CM (complete main)
Параметр Endianness формата : Big
Идентификатор кодека : A_AC3
Продолжительность : 1 ч. 32 м.
Вид битрейта : Постоянный
Битрейт : 384 Кбит/сек
Каналы : 2 канала
Расположение каналов : Front: L R
Частота : 48,0 КГц
Частота кадров : 31,250 кадров/сек (1536 spf)
Метод сжатия : С потерями
Размер потока : 253 Мбайт (8%)
Default : Да
Forced : Нет

pb.wtf



Скачать Дурная кровь через торрент https://a.radikal.ru/a36/1810/79/53738bc47702.jpg Скачать фильм Дурная кровь через торрент бесплантно в хорошем качестве Описание: Кэрри любит своего жениха Винсента, красивого и успешного писателя. А Винсент без ума от Кэрри, она - всё, о чём он когда-либо ... 10 10 2
Торрент: Зарегистрирован [2018-10-22 10:35] · скачан: 30 раз
Статус: T временная
Размер: 3.29 GB
Как cкачать? Как скачать Дурная кровь через торрент | qTorrent

% Раздел Тема Автор DL S | L
T Фильмы (мультфильмы) cо спонсором показа (Новинки AVI/MKV) [ 1.37 GB ] Дурная кровь / Bad Blood [2017 WEB-DLRip] MVO ["Синема УС"] bober100 Скачать
1 | 0
Зарубежные сериалы [ 4.33 GB ] Дурная кровь / Bad Blood / Сезон 1 / Серии 1-6 из 6 [2017 HDTVRip] DVO [ViruseProject] bober100 Скачать
1 | 0
T Иностранные мультфильмы [ 1.37 GB ] Бэтмен: Дурная кровь / Batman: Bad Blood [2016 мультфильм BDRip [Официальный] Twi7ter Скачать
1 | 0

28-11-2019 20:33  

Отключить всю рекламу на сайте

    Дорогой пользователь! Огромная просьба, поблагодарите релизера, оцените раздачу и оставьте свои комментарий, если Вы скачали Дурная кровь через торрент бесплатно! Внесите свою лепту в развитие PiratBit!
    Комментировать посты могут только пользователи прошедшие не сложную регистрацию
    Показать сообщения:    

    Дурная кровь через торрент
    Скачать бесплатно Дурная кровь
    Дурная кровь скачать торрент
    Дурная кровь смотреть онлайн
    Cкачать фильм Дурная кровь бесплатно
    Дурная кровь скачать торрент в хорошем качестве
    Дурная кровь смотреть онлайн бесплатно в хорошем качестве


    Вы не можете начинать темы
    Вы не можете отвечать на сообщения
    Вы не можете редактировать свои сообщения
    Вы не можете удалять свои сообщения
    Вы не можете голосовать в опросах
    Вы не можете прикреплять файлы к сообщениям
    Вы можете скачивать файлы