Ссылка на приватное зеркало нашего сайта всего за 1$. Внимание количество ограничено!!!

2 сезон

iTunes

1 сезон

1

iTunes

iTunes

iTunes

1 сезон

RePack

30

ИГРА 18+

pack

ВАЖНО

!!Акция!!

Alien_RageХит недели

RePack

MK11
pack

Забери бонус

RePack

jed

!!Акция!!

Alien_Rage

RePack

fifa19

RePack

Assassins Creed: Odyssey

RePack

NEED FOR SPEED™ PAYBACK

4 сезон

9 сезон

Бесстыжие 9 сезон

Все сериалы

все сериалы на PB.wtf

RePack

FAR CRY 5
  

Ночные ласточки / Сезон: 1 / Серии: 1-8 из 8 (Михаил Кабанов (II) [2013, Боевик, мелодрама, WEB-DL 720p] pb.wtf

Ночные ласточки через торрент pb.wtf

Размер: 4.66 GB | Добавлен: 2 года назад | Торрент скачан:27 раз
Скачать  

22-10-2018 13:09 Ночные ласточки Скачать торрент  

Ночные ласточкиГод выпуска: 2013
Страна: Россия
Жанр: Боевик, мелодрама
Продолжительность: ~00:47:00
Субтитры: отсутствуют

Режиссер: Михаил Кабанов (II)

rating

В ролях:

Татьяна Арнтгольц, Елизавета Нилова, Екатерина Олькина, Олеся Фаттахова, Мария Пирогова, Елена Куликова, Денис Никифоров, Михаил Евланов, Евгений Ганелин, Игорь Савочкин, Анатолий Пашинин, Дмитрий Мазуров, Олег Гераськин, Владимир Капустин (II), Александр Новик, Константин Спасский, Наталья Людскова, Анатолий Завьялов, Алексей Медведев, Максим Студеновский, Евгения Бурдихина, Лариса Маркина, Константин Шелягин, Дмитрий Лавров (III), Елисей Тарасенко, Надежда Евтехова, Игорь Теплов, Александра Мареева (II), Юлия Ковалева, Виктор Хориняк, Виктор Либеров, Елена Медведева, Валерий Афанасьев, Константин Демидов (II)

Описание:

Сообщение о войне разносилось с огромной скоростью. Эта страшная весть не оставляла равнодушными никого. Мужчины уходили на фронт тысячами, но враг очень быстро наступал и с каждым днём оккупировал всё больше и больше земли нашей родины. На плечи женщин легла непосильная ноша - это не только работа в госпиталях и фабриках, а и на заводах у тяжёлых станков, также во всем помогали и дети. Вначале октября 1941 года был подписан Сталиным приказ о сформировании женских авиационных полков. Мужественные девушки наравне с мужчинами наносили сокрушительные удары по врагу. не жалея сил, падая с ног то усталости на ночных бомбардировщиках "ПО-2" взлетая по первому приказу, они разрушали переправы и оборонительные сооружения, уничтожали технику, доставляли данные о скоплении фашистских войск. Порой женщины хитростью и смекалкой помогали в тяжелых ситуациях. Фашисты стали называть летчиц "Ночными ласточками", а мужчины боевые товарищи испытывали гордость и уважение за настоящих русских женщин. 46-й Гвардейский бомбардировочный Таманский полк прошел боевой путь от Сальских степей и Дона до фашистской Германии. Полк совершил 24 тысячи боевых вылетов, в нем было 25 женщин Героев Советского Союза, многие посмертно.

Качество: WEB-DL 720p
Формат: MP4

Видео: MPEG-4 AVC, ~ 1600 Кбит/с, 1280x720
Аудио: AAC, 2 ch, 192 Кбит/с
скриншот   скриншот   скриншот   скриншот  

Общее
Полное имя : D:\Nochnye lastochki.2012.WEB-DL.(720p).MediaClub\Nochnye lastochki.01.WEB-DL.(720p).MediaClub.mp4
Формат : MPEG-4
Профиль формата : Base Media / Version 2
Идентификатор кодека : mp42 (isom/mp42)
Размер файла : 608 Мбайт
Продолжительность : 47 м. 58 с.
Режим общего битрейта : Переменный
Общий поток : 1773 Кбит/сек
Дата кодирования : UTC 2014-03-07 14:54:42
Дата пометки : UTC 2014-03-07 14:54:42
gsst : 0
gstd : 2878693
gssd : B4A7D6E25HH1399139237115622
gshh : r5---sn-n8v7lne6.googlevideo.com

Видео
Идентификатор : 1
Формат : AVC
Формат/Информация : Advanced Video Codec
Профиль формата : High@L3.1
Параметр CABAC формата : Да
Параметр RefFrames формата : 1 кадр
Параметр GOP формата : M=1, N=60
Идентификатор кодека : avc1
Идентификатор кодека/Информация : Advanced Video Coding
Продолжительность : 47 м. 58 с.
Битрейт : 1578 Кбит/сек
Максимальный битрейт : 8189 Кбит/сек
Ширина : 1280 пикселей
Высота : 720 пикселей
Соотношение сторон : 16:9
Режим частоты кадров : Постоянный
Частота кадров : 25,000 кадров/сек
Цветовое пространство : YUV
Субдискретизация насыщенности : 4:2:0
Битовая глубина : 8 бит
Тип развёртки : Прогрессивная
Бит/(Пиксели*Кадры) : 0.069
Размер потока : 542 Мбайт (89%)
Дата пометки : UTC 2014-03-07 14:56:57

Аудио
Идентификатор : 2
Формат : AAC
Формат/Информация : Advanced Audio Codec
Профиль формата : LC
Идентификатор кодека : 40
Продолжительность : 47 м. 58 с.
Вид битрейта : Переменный
Битрейт : 192 Кбит/сек
Максимальный битрейт : 201 Кбит/сек
Каналы : 2 канала
Расположение каналов : Front: L R
Частота : 44,1 КГц
Частота кадров : 43,066 кадра/сек (1024 spf)
Метод сжатия : С потерями
Размер потока : 65,9 Мбайт (11%)
Заголовок : IsoMedia File Produced by Google, 5-11-2011
Дата кодирования : UTC 2014-03-07 14:56:06
Дата пометки : UTC 2014-03-07 14:56:57

pb.wtf



Скачать Ночные ласточки через торрент http://i53.fastpic.ru/big/2013/0128/a1/e0136dd2ce92a707d4ad583cb2ba71a1.jpg Скачать фильм Ночные ласточки через торрент бесплантно в хорошем качестве Описание: Сообщение о войне разносилось с огромной скоростью. Эта страшная весть не оставляла равнодушными никого. Мужчины уходили на фронт ... 10 10 3
Торрент: Зарегистрирован [2018-10-22 13:09] · скачан: 27 раз
Статус: √ проверено
Размер: 4.66 GB
Как cкачать? Как скачать Ночные ласточки через торрент | qTorrent

% Раздел Тема Автор DL S | L
Наши сериалы [ 11.2 GB ] Ночные ласточки / Сезон: 1 / Серии: 1-8 из 8 [2013 WEB-DL 1080p] bober100 Скачать
1 | 0
Наши сериалы [ 23.04 GB ] Ночные ласточки / Сезон: 1 / Серии: 1-8 из 8 [2013 HDTV 1080i] bober100 Скачать
1 | 0
Наши сериалы [ 9.08 GB ] Ночные ласточки / Сезон: 1 / Серии: 1-8 из 8 [2013 HDTVRip 720p] bober100 Скачать
1 | 0
Наши сериалы [ 4.7 GB ] Ночные ласточки / Сезон: 1 / Серии: 1-8 из 8 [2013 HDTVRip] bober100 Скачать
1 | 0

28-11-2019 20:33  

Отключить всю рекламу на сайте

    Дорогой пользователь! Огромная просьба, поблагодарите релизера, оцените раздачу и оставьте свои комментарий, если Вы скачали Ночные ласточки через торрент бесплатно! Внесите свою лепту в развитие PiratBit!
    Комментировать посты могут только пользователи прошедшие не сложную регистрацию
    Показать сообщения:    

    Ночные ласточки через торрент
    Скачать бесплатно Ночные ласточки
    Ночные ласточки скачать торрент
    Ночные ласточки смотреть онлайн
    Cкачать фильм Ночные ласточки бесплатно
    Ночные ласточки скачать торрент в хорошем качестве
    Ночные ласточки смотреть онлайн бесплатно в хорошем качестве


    Вы не можете начинать темы
    Вы не можете отвечать на сообщения
    Вы не можете редактировать свои сообщения
    Вы не можете удалять свои сообщения
    Вы не можете голосовать в опросах
    Вы не можете прикреплять файлы к сообщениям
    Вы можете скачивать файлы