Ссылка на приватное зеркало нашего сайта всего за 1$. Внимание количество ограничено!!!

2 сезон

iTunes

1 сезон

1

2 сезон

2 сезон

iTunes

1 сезон

RePack

30

Ultimate

ВАЖНО

ИГРА 18+

pack

RePack

MK11
pack

Забери бонус

RePack

jed

!!Акция!!

Alien_Rage

RePack

fifa19

RePack

Assassins Creed: Odyssey

RePack

NEED FOR SPEED™ PAYBACK

4 сезон

9 сезон

Бесстыжие 9 сезон

Все сериалы

все сериалы на PB.wtf

RePack

FAR CRY 5
  

Мой ужин с Эрве / My Dinner with Hervé (Саша Джерваси) [2018, драма, биография, WEB-DL 1080p] MVO [Кравец] pb.wtf

Мой ужин с Эрве через торрент pb.wtf

Размер: 6.08 GB | Добавлен: 1 год 2 мес. назад | Торрент скачан:39 раз
Скачать  

22-10-2018 14:43 Мой ужин с Эрве Скачать торрент  

Мой ужин с Эрве / My Dinner with Hervé
Год выпуска: 2018
Страна: США
Жанр: драма, биография
Продолжительность: 01:45:46
Перевод: Профессиональный многоголосый | Кравец
Субтитры: Russian (Full), English (Full, SDH)

Режиссер: Саша Джерваси

rating


В ролях: Джейми Дорнан, Питер Динклэйдж, Энди Гарсиа, Уна Чаплин, Мирей Инос, Хелена Мэттссон, Эшли Брюэр, Харриет Уолтер, Уоллес Лэнгэм, Дэниэл Мейс

Описание: Рассказ о последних днях телезвезды Эрве Вилешеза. За основу взяты интервью самого Джерваси, которые он успел взять незадолго до суицида артиста в 1993 году.

Качество: WEB-DL 1080p
Формат: MKV

Видео: MPEG-4 AVC, 1920x1080, 7209 Кбит/с, 23.976 fps
Аудио 1: Russian: AC3, 48.0 KHz, 6 ch, 384 Кбит/с - Кравец
Аудио 2: English: E-AC3, 48.0 KHz, 6 ch, 640 Кбит/с - Original
скриншот  скриншот  скриншот  скриншот  скриншот  

Общее
Уникальный идентификатор : 248620614475128915900933395339826720452 (0xBB0A96AFDCFF4699A8101B516AD06EC4)
Полное имя : S:My.Dinner.with.Herve.2018.1080p.AMZN.WEB-DL.Rus.Eng_TeamHD.mkv
Формат : Matroska
Версия формата : Version 4
Размер файла : 6,08 Гбайт
Продолжительность : 1 ч. 45 м.
Общий поток : 8236 Кбит/сек
Название фильма : My Dinner with Herve (2018) - ReJliz TeamHD by BenderBEST
Дата кодирования : UTC 2018-11-29 13:42:17
Программа кодирования : mkvmerge v8.3.0 ('Over the Horizon') 64bit
Библиотека кодирования : libebml v1.3.1 + libmatroska v1.4.2

Видео
Идентификатор : 1
Формат : AVC
Формат/Информация : Advanced Video Codec
Профиль формата : High@L4
Настройки формата : CABAC / 4 Ref Frames
Параметр CABAC формата : Да
Параметр RefFrames формата : 4 кадра
Идентификатор кодека : V_MPEG4/ISO/AVC
Продолжительность : 1 ч. 45 м.
Битрейт : 7209 Кбит/сек
Ширина : 1920 пикселей
Высота : 1080 пикселей
Соотношение сторон : 16:9
Режим частоты кадров : Постоянный
Частота кадров : 23,976 (24000/1001) кадра/сек
Цветовое пространство : YUV
Субдискретизация насыщенности : 4:2:0
Битовая глубина : 8 бит
Тип развёртки : Прогрессивная
Бит/(Пиксели*Кадры) : 0.145
Размер потока : 5,33 Гбайт (88%)
Язык : English
Default : Да
Forced : Да
Цветовой диапазон : Limited
Основные цвета : BT.709
Характеристики трансфера : BT.709
Коэффициенты матрицы : BT.709

Аудио #1
Идентификатор : 2
Формат : AC-3
Формат/Информация : Audio Coding 3
Коммерческое название : Dolby Digital
Идентификатор кодека : A_AC3
Продолжительность : 1 ч. 45 м.
Вид битрейта : Постоянный
Битрейт : 384 Кбит/сек
Каналы : 6 каналов
Channel layout : L R C LFE Ls Rs
Частота : 48,0 КГц
Частота кадров : 31,250 кадров/сек (1536 SPF)
Битовая глубина : 16 бит
Метод сжатия : С потерями
Размер потока : 290 Мбайт (5%)
Заголовок : AC3 5.1 @ 384 kbps - MVO, Кравец / Amedia
Язык : Russian
Default : Да
Forced : Да

Аудио #2
Идентификатор : 3
Формат : E-AC-3
Формат/Информация : Enhanced AC-3
Коммерческое название : Dolby Digital Plus
Идентификатор кодека : A_EAC3
Продолжительность : 1 ч. 45 м.
Вид битрейта : Постоянный
Битрейт : 640 Кбит/сек
Каналы : 6 каналов
Channel layout : L R C LFE Ls Rs
Частота : 48,0 КГц
Частота кадров : 31,250 кадров/сек (1536 SPF)
Метод сжатия : С потерями
Задержка видео : 9 мс.
Размер потока : 484 Мбайт (8%)
Заголовок : EAC3 5.1 @ 640 kbps
Язык : English
Default : Нет
Forced : Нет

Текст #1
Идентификатор : 4
Формат : UTF-8
Идентификатор кодека : S_TEXT/UTF8
Идентификатор кодека/Информация : UTF-8 Plain Text
Продолжительность : 1 ч. 38 м.
Битрейт : 83 бит/сек
ElementCount : 1177
Размер потока : 60,2 Кбайт (0%)
Заголовок : Full
Язык : Russian
Default : Нет
Forced : Нет

Текст #2
Идентификатор : 5
Формат : UTF-8
Идентификатор кодека : S_TEXT/UTF8
Идентификатор кодека/Информация : UTF-8 Plain Text
Продолжительность : 1 ч. 43 м.
Битрейт : 56 бит/сек
ElementCount : 1552
Размер потока : 43,3 Кбайт (0%)
Язык : English
Default : Нет
Forced : Нет

Текст #3
Идентификатор : 6
Формат : UTF-8
Идентификатор кодека : S_TEXT/UTF8
Идентификатор кодека/Информация : UTF-8 Plain Text
Продолжительность : 1 ч. 44 м.
Битрейт : 61 бит/сек
ElementCount : 1739
Размер потока : 47,3 Кбайт (0%)
Заголовок : SDH
Язык : English
Default : Нет
Forced : Нет

pb.wtf



Скачать Мой ужин с Эрве через торрент https://b.radikal.ru/b40/1810/ce/aa20f8b0321a.jpg Скачать фильм Мой ужин с Эрве через торрент бесплантно в хорошем качестве Описание: Рассказ о последних днях телезвезды Эрве Вилешеза. За основу взяты интервью самого Джерваси, которые он успел взять незадолго до ... 9.5 10 6
Торрент: Зарегистрирован [2019-08-31 17:19] · скачан: 39 раз
Статус: √ проверено
Размер: 6.08 GB
Как cкачать? Как скачать Мой ужин с Эрве через торрент | qTorrent

% Раздел Тема Автор DL S | L
Фильмы 2018 [DVDrip, WEB-DLRip, HDrip] (DUB, MVO) [ 2.19 GB ] Мой ужин с Эрве / My Dinner with Hervé [2018 биография WEB-DLRip] [MVO] killermax2013 Скачать
1 | 0


Последний раз редактировалось: bober100 (2019-08-31 17:19), всего редактировалось 1 раз

28-11-2019 20:33  

Отключить всю рекламу на сайте

    Дорогой пользователь! Огромная просьба, поблагодарите релизера, оцените раздачу и оставьте свои комментарий, если Вы скачали Мой ужин с Эрве через торрент бесплатно! Внесите свою лепту в развитие PiratBit!
    Комментировать посты могут только пользователи прошедшие не сложную регистрацию
    Показать сообщения:    

    Мой ужин с Эрве через торрент
    Скачать бесплатно Мой ужин с Эрве
    Мой ужин с Эрве скачать торрент
    Мой ужин с Эрве смотреть онлайн
    Cкачать фильм Мой ужин с Эрве бесплатно
    Мой ужин с Эрве скачать торрент в хорошем качестве
    Мой ужин с Эрве смотреть онлайн бесплатно в хорошем качестве


    Вы не можете начинать темы
    Вы не можете отвечать на сообщения
    Вы не можете редактировать свои сообщения
    Вы не можете удалять свои сообщения
    Вы не можете голосовать в опросах
    Вы не можете прикреплять файлы к сообщениям
    Вы можете скачивать файлы