Ссылка на приватное зеркало всего за 1$. Внимание количество ограничено!!!

iTunes

iTunes

iTunes

1

iTunes

iTunes

iTunes

WEBRip

iTunes

30
pack

$ от Little Big

ВАЖНО

!!Акция!!

Alien_RageХит недели

RePack

Resident Evil 21

ИГРА 18+

pack

RePack

jed

!!Акция!!

Alien_Rage

RePack

fifa19

RePack

Assassins Creed: Odyssey

RePack

NEED FOR SPEED™ PAYBACK

4 сезон

9 сезон

Бесстыжие 9 сезон

Все сериалы

все сериалы на PB.wtf

RePack

FAR CRY 5
  

Транзит / Transit (Кристиан Петцольд) [2018, драма, BDRip 720p] MVO ["Синема УС"] pb.wtf

Транзит через торрент pb.wtf

Размер: 5.11 GB | Добавлен: 1 год 9 мес. назад | Торрент скачан:11 раз
Скачать  

22-10-2018 15:05 Транзит Скачать торрент  

Транзит / TransitГод выпуска: 2018
Страна: Германия, Франция
Жанр: драма
Продолжительность: 01:44:13
Перевод: Любительский (многоголосый) | "Синема УС"
Субтитры: отсутствуют

Режиссер: Кристиан Петцольд

rating

В ролях:

Франц Роговский, Паула Бир, Годехард Гизе, Лилиен Бэтман, Марьям Заре, Барбара Ауэр, Маттиас Брандт, Себастьян Хюльк, Эмили де Прессак, Антуан Оппенхайм

Описание:

Немецкие войска находятся недалеко от Парижа. В последний момент Георг убегает в Марсель. В его багаже хранятся рукописи, письма и мексиканская виза писателя Вейделя, который покончил с собой. Под личностью Вейделя Георг пытается проникнуть на корабль, чтобы покинуть страну. Но ему приходится застрять в местном отеле, договариваясь о бегстве. Когда же он встречает таинственную Мари, планы меняются.

Качество: BDRip 720p
Формат: MKV

Видео: h.264, 6 575 kb/s, 1280x536
Аудио#1: Русский, (AC3, 2 ch, 448 Кбит/с)
скриншот  скриншот  скриншот  

Общее
Уникальный идентификатор : 205244391207163975358442132783655415964 (0x9A68A1C3D3D724F58033CBF06D8DF09C)
Полное имя : C:\Transit.2018.P.BDRip.72Op_KOSHARA.mkv
Формат : Matroska
Версия формата : Version 2
Размер файла : 5,11 Гбайт
Продолжительность : 1 ч. 44 м.
Режим общего битрейта : Переменный
Общий поток : 7025 Кбит/сек
Дата кодирования : UTC 2018-10-21 11:58:40
Программа кодирования : mkvmerge v8.3.0 ('Over the Horizon') 64bit
Библиотека кодирования : libebml v1.3.1 + libmatroska v1.4.2

Видео
Идентификатор : 1
Формат : AVC
Формат/Информация : Advanced Video Codec
Профиль формата : High@L4.1
Параметр CABAC формата : Да
Параметр RefFrames формата : 4 кадра
Идентификатор кодека : V_MPEG4/ISO/AVC
Продолжительность : 1 ч. 44 м.
Вид битрейта : Переменный
Битрейт : 6575 Кбит/сек
Максимальный битрейт : 7500 Кбит/сек
Ширина : 1280 пикселей
Высота : 536 пикселей
Соотношение сторон : 2,40:1
Режим частоты кадров : Постоянный
Частота кадров : 23,976 (24000/1001) кадра/сек
Стандарт вещания : Component
Цветовое пространство : YUV
Субдискретизация насыщенности : 4:2:0
Битовая глубина : 8 бит
Тип развёртки : Прогрессивная
Бит/(Пиксели*Кадры) : 0.391
Размер потока : 4,69 Гбайт (92%)
Default : Да
Forced : Нет
Цветовой диапазон : Limited
Основные цвета : BT.709
Характеристики трансфера : BT.709
Коэффициенты матрицы : BT.709

Аудио
Идентификатор : 2
Формат : AC-3
Формат/Информация : Audio Coding 3
Расширение режима : CM (complete main)
Параметр Endianness формата : Big
Идентификатор кодека : A_AC3
Продолжительность : 1 ч. 44 м.
Вид битрейта : Постоянный
Битрейт : 448 Кбит/сек
Каналы : 2 канала
Расположение каналов : Front: L R
Частота : 48,0 КГц
Частота кадров : 31,250 кадров/сек (1536 spf)
Метод сжатия : С потерями
Размер потока : 334 Мбайт (6%)
Default : Да
Forced : Нет

pb.wtf



Скачать Транзит через торрент https://b.radikal.ru/b00/1810/64/c1ed7b2be9cf.jpg Скачать фильм Транзит через торрент бесплантно в хорошем качестве Описание: Немецкие войска находятся недалеко от Парижа. В последний момент Георг убегает в Марсель. В его багаже хранятся рукописи, письма ... 10 10 2
Торрент: Зарегистрирован [2018-10-22 15:05] · скачан: 11 раз
Статус: # сомнительно
Размер: 5.11 GB
Как cкачать? Как скачать Транзит через торрент | qTorrent

% Раздел Тема Автор DL S | L
T Фильмы (мультфильмы) cо спонсором показа (Новинки AVI/MKV) [ 1.36 GB ] Транзит / Transit [2018 HDRip] MVO ["Синема УС"] bober100 Скачать
1 | 0
Фильмы 2012 [ 1.7 GB ] Транзит / Transit [2012 HDRip-AVC] MVO + Original + Sub potroks Скачать
1 | 0
Фильмы [HD 720p, 1080p] (Хороший звук DUB, MVO) [ 4.23 GB ] Транзит / Transit [2012 BDRip 720p MVO лицензия] sergey82 Скачать
1 | 0
Фильмы 2012 [ 1.37 GB ] Транзит / Transit [2012 HDRip ] Серёжк@ Скачать
1 | 0
Фильмы 2012 [ 698 MB ] Транзит / Transit [2012 HDRip ] Newton5 Скачать
1 | 0

28-11-2019 20:33  

Отключить всю рекламу на сайте

    Дорогой пользователь! Огромная просьба, поблагодарите релизера, оцените раздачу и оставьте свои комментарий, если Вы скачали Транзит через торрент бесплатно! Внесите свою лепту в развитие PiratBit!
    Комментировать посты могут только пользователи прошедшие не сложную регистрацию
    Показать сообщения:    

    Транзит через торрент
    Скачать бесплатно Транзит
    Транзит скачать торрент
    Транзит смотреть онлайн
    Cкачать фильм Транзит бесплатно
    Транзит скачать торрент в хорошем качестве
    Транзит смотреть онлайн бесплатно в хорошем качестве


    Вы не можете начинать темы
    Вы не можете отвечать на сообщения
    Вы не можете редактировать свои сообщения
    Вы не можете удалять свои сообщения
    Вы не можете голосовать в опросах
    Вы не можете прикреплять файлы к сообщениям
    Вы можете скачивать файлы