Ссылка на приватное зеркало всего за 1$. Внимание количество ограничено!!!

iTunes

iTunes

iTunes

1

iTunes

iTunes

iTunes

WEBRip

iTunes

30
pack

$ от Little Big

ВАЖНО

!!Акция!!

Alien_RageХит недели

RePack

Resident Evil 21

ИГРА 18+

pack

RePack

jed

!!Акция!!

Alien_Rage

RePack

fifa19

RePack

Assassins Creed: Odyssey

RePack

NEED FOR SPEED™ PAYBACK

4 сезон

9 сезон

Бесстыжие 9 сезон

Все сериалы

все сериалы на PB.wtf

RePack

FAR CRY 5
  

Шпион, который меня кинул / The Spy Who Dumped Me (Сюзанна Фогель) [2018, боевик, комедия, BDRip 1080p] DUB [iTunes] pb.wtf

Шпион, который меня кинул через торрент pb.wtf

Раздают: 1 [ 0 KB/s ]
Размер: 8.22 GB | Добавлен: 1 год 9 мес. назад | Торрент скачан:1525 раз
Скачать  

22-10-2018 19:39 Шпион, который меня кинул Скачать торрент  

Шпион, который меня кинул / The Spy Who Dumped Me
Год выпуска: 2018
Страна: США
Жанр: боевик, комедия
Продолжительность: 01:56:56
Перевод: Дублироанный | iTunes
Субтитры: Английские

Режиссер: Сюзанна Фогель

rating

В ролях:

Мила Кунис, Кейт МакКиннон, Сэм Хьюэн, Джастин Теру, Джиллиан Андерсон, Хасан Минхадж, Иванна Сахно, Фред Меламед, Бланка Дьёрфи-Тот, Вильма Сечи

Описание:

Одри и Морган, лучшие подруги из Лос-Анджелеса, неожиданно оказываются в эпицентре международного заговора, когда бывший Одри заявляется к ней с толпой идущих по следу кровожадных убийц. Удивляясь сами себе, девушки берутся за нелегкое дело спасения мира. Их ждет полная опасностей - и киллеров - шпионская гонка по всей Европе, где на пути им встречается очень подозрительный, но такой обаятельный британский агент...

Качество: BDRip 1080p
Формат: MKV

Видео: MPEG-4 AVC, 1920x800, 9066 Kbit/s, 23.976 fps
Аудио#1: 48 kHz, AC3, 5.1, 384 Kbps | iTunes | RUS |
Аудио#2: 48 kHz, AC3, 5.1, 640 Kbps | Оригинал | ENG |
скриншот  скриншот  скриншот  скриншот  скриншот  

General
Unique ID : 281284219462673829582859595006625268184 (0xD39D5EBFD5DACEB0565F44F6D71141D8)
Complete name : D:Video111The.Spy.Who.Dumped.Me.2018.BluRay.1080p.Rus.Eng.TeamHD-CHD.mkv
Format : Matroska
Format version : Version 4
File size : 8.22 GiB
Duration : 1 h 56 min
Overall bit rate : 10.1 Mb/s
Movie name : The.Spy.Who.Dumped.Me.2018 TeamHD-селезень
Encoded date : UTC 2018-10-22 18:33:12
Writing application : mkvmerge v28.0.0 ('Voice In My Head') 64-bit
Writing library : libebml v1.3.6 + libmatroska v1.4.9

Video
ID : 1
Format : AVC
Format/Info : Advanced Video Codec
Format profile : High@L4.1
Format settings : CABAC / 4 Ref Frames
Format settings, CABAC : Yes
Format settings, ReFrames : 4 frames
Codec ID : V_MPEG4/ISO/AVC
Duration : 1 h 56 min
Bit rate : 9 066 kb/s
Width : 1 920 pixels
Height : 800 pixels
Display aspect ratio : 2.40:1
Frame rate mode : Constant
Frame rate : 23.976 (24000/1001) FPS
Color space : YUV
Chroma subsampling : 4:2:0
Bit depth : 8 bits
Scan type : Progressive
Bits/(Pixel*Frame) : 0.246
Stream size : 7.38 GiB (90%)
Title : CHD
Writing library : x264 core 155 r2901 7d0ff22
Encoding settings : cabac=1 / ref=4 / deblock=1:-3:-3 / analyse=0x3:0x113 / me=umh / subme=10 / psy=1 / psy_rd=1.05:0.10 / mixed_ref=1 / me_range=48 / chroma_me=1 / trellis=2 / 8x8dct=1 / cqm=0 / deadzone=21,11 / fast_pskip=0 / chroma_qp_offset=-2 / threads=18 / lookahead_threads=1 / sliced_threads=0 / nr=0 / decimate=1 / interlaced=0 / bluray_compat=0 / constrained_intra=0 / bframes=6 / b_pyramid=2 / b_adapt=2 / b_bias=0 / direct=3 / weightb=1 / open_gop=0 / weightp=2 / keyint=250 / keyint_min=23 / scenecut=40 / intra_refresh=0 / rc=2pass / mbtree=0 / bitrate=9066 / ratetol=2.0 / qcomp=0.70 / qpmin=0 / qpmax=69 / qpstep=4 / cplxblur=20.0 / qblur=0.5 / ip_ratio=1.40 / pb_ratio=1.30 / aq=3:1.00
Language : English
Default : Yes
Forced : No

Audio #1
ID : 2
Format : AC-3
Format/Info : Audio Coding 3
Commercial name : Dolby Digital
Codec ID : A_AC3
Duration : 1 h 56 min
Bit rate mode : Constant
Bit rate : 384 kb/s
Channel(s) : 6 channels
Channel layout : L R C LFE Ls Rs
Sampling rate : 48.0 kHz
Frame rate : 31.250 FPS (1536 SPF)
Bit depth : 16 bits
Compression mode : Lossy
Stream size : 321 MiB (4%)
Title : iTunes
Language : Russian
Service kind : Complete Main
Default : Yes
Forced : Yes

Audio #2
ID : 3
Format : AC-3
Format/Info : Audio Coding 3
Commercial name : Dolby Digital
Codec ID : A_AC3
Duration : 1 h 56 min
Bit rate mode : Constant
Bit rate : 640 kb/s
Channel(s) : 6 channels
Channel layout : L R C LFE Ls Rs
Sampling rate : 48.0 kHz
Frame rate : 31.250 FPS (1536 SPF)
Bit depth : 16 bits
Compression mode : Lossy
Stream size : 535 MiB (6%)
Title : Original
Language : English
Service kind : Complete Main
Default : No
Forced : No

Text #1
ID : 4
Format : UTF-8
Codec ID : S_TEXT/UTF8
Codec ID/Info : UTF-8 Plain Text
Duration : 1 h 48 min
Bit rate : 79 b/s
Count of elements : 1958
Stream size : 63.1 KiB (0%)
Title : Full
Language : English
Default : No
Forced : No

Text #2
ID : 5
Format : UTF-8
Codec ID : S_TEXT/UTF8
Codec ID/Info : UTF-8 Plain Text
Duration : 1 h 48 min
Bit rate : 80 b/s
Count of elements : 2086
Stream size : 64.1 KiB (0%)
Title : SDH
Language : English
Default : No
Forced : No

Text #3
ID : 6
Format : UTF-8
Codec ID : S_TEXT/UTF8
Codec ID/Info : UTF-8 Plain Text
Duration : 1 h 49 min
Bit rate : 131 b/s
Count of elements : 2394
Stream size : 106 KiB (0%)
Title : SDH Colored
Language : English
Default : No
Forced : No

Menu
00:00:00.000 : en:00:00:00.000
00:07:32.410 : en:00:07:32.410
00:14:08.097 : en:00:14:08.097
00:20:44.535 : en:00:20:44.535
00:28:28.040 : en:00:28:28.040
00:35:15.864 : en:00:35:15.864
00:41:22.438 : en:00:41:22.438
00:47:24.675 : en:00:47:24.675
00:52:19.136 : en:00:52:19.136
01:02:37.295 : en:01:02:37.295
01:09:52.146 : en:01:09:52.146
01:14:41.644 : en:01:14:41.644
01:23:34.551 : en:01:23:34.551
01:26:44.449 : en:01:26:44.449
01:41:58.612 : en:01:41:58.612
01:46:01.313 : en:01:46:01.313

pb.wtf



Скачать Шпион, который меня кинул через торрент http://img11.lostpic.net/2018/10/22/cb0fd6fb20eb43917a39c96146f42a8b.jpg Скачать фильм Шпион, который меня кинул через торрент бесплантно в хорошем качестве Описание: Одри и Морган, лучшие подруги из Лос-Анджелеса, неожиданно оказываются в эпицентре международного заговора, когда бывший Одри ... 9.7 10 37
Info! Золотая раздача, скачанное не засчитывается.
Торрент: Зарегистрирован [2018-10-22 19:39] · скачан: 1 525 раз
Статус: √ проверено
Размер: 8.22 GB
Как cкачать? Как скачать Шпион, который меня кинул через торрент | qTorrent

% Раздел Тема Автор DL S | L
Фильмы 2018 [DVDrip, WEB-DLRip, HDrip] (DUB, MVO) [ 1.47 GB ] Шпион который меня кинул / The Spy Who Dumped Me [2018 HDRip] bober100 Скачать
8 | 0
Фильмы 2018 [DVDrip, WEB-DLRip, HDrip] (DUB, MVO) [ 2.13 GB ] Шпион который меня кинул / The Spy Who Dumped Me [2018 BDRip] - Twi7ter Скачать
2 | 0
Фильмы 2018 [DVDrip, WEB-DLRip, HDrip] (DUB, MVO) [ 1.41 GB ] Шпион который меня кинул / The Spy Who Dumped Me [2018 BDRip] - Twi7ter Скачать
2 | 0
Фильмы 2018 [DVDrip, WEB-DLRip, HDrip] (DUB, MVO) [ 2.18 GB ] Шпион который меня кинул / The Spy Who Dumped Me [2018 HDRip] Леонид Ильич Скачать
2 | 0
Фильмы [HD 720p, 1080p] (Хороший звук DUB, MVO) [ 6.4 GB ] Шпион который меня кинул / The Spy Who Dumped Me [2018 BDRip 1080p HEVC ()] Мичман37 Скачать
1 | 0
Фильмы 2018 [DVDrip, WEB-DLRip, HDrip] (DUB, MVO) [ 711 MB ] Шпион который меня кинул / The Spy Who Dumped Me [2018 HDRip ""] coc900 Скачать
1 | 0
Ultra HD (UHD: 2K, 4K, 8K) — видео сверхвысокой чёткости [ 36.63 GB ] Шпион который меня кинул / The Spy Who Dumped Me [2018 UHD BDRip 2160p] [SDR] - sheker187 Скачать
1 | 0

28-11-2019 20:33  

Отключить всю рекламу на сайте

25-10-2018 14:36 Шпион, который меня кинул Скачать торрент  

Спасибо, смотрим.pb.wtf



28-10-2018 06:53 Шпион, который меня кинул Скачать торрент  

чушь не советую смотреть.pb.wtf



16-11-2018 13:00 Шпион, который меня кинул Скачать торрент  

Разок посмотреть можно, и боевик присутствует, и юмор.pb.wtf



    Дорогой пользователь! Огромная просьба, поблагодарите релизера, оцените раздачу и оставьте свои комментарий, если Вы скачали Шпион, который меня кинул через торрент бесплатно! Внесите свою лепту в развитие PiratBit!
    Комментировать посты могут только пользователи прошедшие не сложную регистрацию
    Показать сообщения:    

    Шпион, который меня кинул через торрент
    Скачать бесплатно Шпион, который меня кинул
    Шпион, который меня кинул скачать торрент
    Шпион, который меня кинул смотреть онлайн
    Cкачать фильм Шпион, который меня кинул бесплатно
    Шпион, который меня кинул скачать торрент в хорошем качестве
    Шпион, который меня кинул смотреть онлайн бесплатно в хорошем качестве


    Вы не можете начинать темы
    Вы не можете отвечать на сообщения
    Вы не можете редактировать свои сообщения
    Вы не можете удалять свои сообщения
    Вы не можете голосовать в опросах
    Вы не можете прикреплять файлы к сообщениям
    Вы можете скачивать файлы