Всегда рабочее зеркало без VPN и Proxy просто перед .vidak.icu напиши любое слово или цифру, Пример http://khmz.vidak.icu

MVO

2 сезон

1 сезон

1

1 сезон

iTunes

2 сезон

13

1 сезон

Deluxe

pack

Рекомендуем

Пиратка

30

ВАЖНО

RePack

MK11

RePack

jed

RePack

fifa19

RePack

RDR2

RePack

NEED FOR SPEED™ PAYBACK

Кинопоиск HD

6 сезон

 Острые козырьки 6 сезон

Все сериалы

все сериалы на PB.wtf

RePack

FAR CRY 5

Anonymous, нам критически не хватает 5601 руб. на оплату серверов и переферии за Апрель, помоги нам пожалуйста, вся надежда только на тебя. В благодарность мы отключим тебе всю рекламу на сайте!

×
  
Magnet ссылка

Дожить до любви / Сезон: 1 / Серии: (1-16 из 16) (Владимир Балкашинов) [2018, мелодрама, HDTV 1080p] Не требуется [Русский] R.G.Generalfilm pb.wtf

Дожить до любви через торрент pb.wtf

Размер: 28.78 GB | Добавлен: 3 года 6 мес. назад | Торрент скачан:15 раз
Смотреть онлайн Дожить до любви | Скачать    Ребята, помогите собрать деньги на оплату серверов!!!

23-10-2018 11:10 Дожить до любви Скачать торрент  





Год выпуска: 2018
Страна: Россия
Жанр: мелодрама
Продолжительность: 00:44:01
Перевод: Не требуется [Русский]
Режиссер: Владимир Балкашинов
В ролях:

Дарья Повереннова (Арина), Алёна Хмельницкая (Милена), Алексей Матошин (Глеб), Илья Шакунов (Илья), Вячеслав Чепурченко (Алексей), Антонина Дивина (Лиза), Владимир Капустин (Паша), Екатерина Соломатина (Глаша), Мария Боровичева (Оксана), Ксения Савицкая (Арина в молодости), Денис Васильев (Матвей), Маргарита Быстрякова (Милена в молодости)
Описание:
Жизнь Лизы Волковой и ее планы на счастливое будущее рушатся, когда ее отец попадает в тюрьму и вся семья оказывается на грани разорения и распада. Узнав, что причиной этого ужаса стала властная и категоричная Арина Мельникова, которая легко играет судьбами людей, Лиза твердо намерена отомстить обидчице и вернуть то, что ей было так дорого...

Качество: HDTV 1080p Запись с
Формат: MKV
Видео кодек: AVC
Аудио кодек: AC3
Видео: AVC, 1920x1080 (16:9), 7050 kbps, 25 fps, 0,136 bpp
Аудио: AC3 / 2.0 / 48 kHz / 192 kbps /
General
Unique ID : 210162539644804650466905776799054344753 (0x9E1BD53448B1795A9644F9CF1BB4B231)
Complete name : E:\Запись с тв\Dozhit do lyubvi 2018.HDTV 1080p.R.G.Generalfilm\Dozhit do lyubvi.s01.e01.2018.HDTV 1080p.by.White Smoke.R.G.Generalfilm.mkv
Format : Matroska
Format version : Version 4 / Version 2
File size : 2.22 GiB
Duration : 44 min
Overall bit rate mode : Constant
Overall bit rate : 7 218 kb/s
Encoded date : UTC 2018-10-23 10:37:35
Writing application : mkvmerge v6.8.0 ('Theme for Great Cities') 64bit built on Mar 2 2014 21:34:26
Writing library : libebml v1.3.0 + libmatroska v1.4.1
Cover : Yes
Attachments : cover.jpg

Video
ID : 1
Format : AVC
Format/Info : Advanced Video Codec
Format profile : High@L4.1
Format settings, CABAC : Yes
Format settings, ReFrames : 3 frames
Codec ID : V_MPEG4/ISO/AVC
Duration : 44 min
Bit rate mode : Constant
Bit rate : 7 051 kb/s
Width : 1 920 pixels
Height : 1 080 pixels
Display aspect ratio : 16:9
Frame rate mode : Constant
Frame rate : 25.000 FPS
Standard : PAL
Color space : YUV
Chroma subsampling : 4:2:0
Bit depth : 8 bits
Scan type : Progressive
Bits/(Pixel*Frame) : 0.136
Stream size : 2.12 GiB (95%)
Default : Yes
Forced : No
Color range : Limited
Color primaries : BT.709
Transfer characteristics : BT.709
Matrix coefficients : BT.709

Audio
ID : 2
Format : AC-3
Format/Info : Audio Coding 3
Mode extension : CM (complete main)
Format settings, Endianness : Big
Codec ID : A_AC3
Duration : 44 min
Bit rate mode : Constant
Bit rate : 192 kb/s
Channel(s) : 2 channels
Channel positions : Front: L R
Sampling rate : 48.0 kHz
Frame rate : 31.250 FPS (1536 spf)
Compression mode : Lossy
Stream size : 60.4 MiB (3%)
Default : Yes
Forced : No
Внимание! Раздача ведётся путём добавления новых серий; при каждом добавлении создаётся новый торрент.
Чтобы начать докачку новой серии, пользователям необходимо сделать следующее:
1. Остановить скачивание;
2. Удалить старый торрент у себя из клиента (старые серии удалять не надо);
3. Скачать новый торрент и запустить его у себя в клиенте вместо старого, при этом указать клиенту путь в старую папку куда и должно происходить скачивание новых серий. Ваш клиент при этом должен произвести хеширование (проверку) старой папки и будет докачивать только те серии, которых у вас ещё нет. Старые серии при этом не удаляются, а продолжают раздаваться! Eсли вы уже удалили старые серии, то предотвратить повторную закачку старых серий можно, отжав галочку в соответствующих местах при запуске нового торрента.
pb.wtf



Скачать Дожить до любви через торрент http://interhit.org/img/2018-05/27/95e0rpzgd7ieqwngygkarjw3v.gif Скачать, смотреть онлайн Дожить до любви бесплантно в хорошем качестве Описание: Жизнь Лизы Волковой и ее планы на счастливое будущее рушатся, когда ее отец попадает в тюрьму и вся семья оказывается на грани ... 10 10 2
× Info от релизера! Добавлена 13-16 серия в 12 серии исправлен звук
Info! Золотая раздача, скачанное не засчитывается.
Торрент: Зарегистрирован [2018-10-27 16:35] · скачан: 15 раз
Статус: √ проверено
Размер: 28.78 GB
Как cкачать? Как скачать Дожить до любви через торрент | UTorrent

28-11-2019 20:33  

Отключить всю рекламу на сайте

    Дорогой пользователь! Огромная просьба, поблагодарите релизера, оцените раздачу и оставьте свои комментарий, если Вы скачали Дожить до любви через торрент бесплатно!
    Комментировать посты могут только пользователи прошедшие не сложную регистрацию
    Показать сообщения:    

    Дожить до любви через торрент
    Скачать бесплатно Дожить до любви
    Дожить до любви скачать торрент
    Дожить до любви смотреть онлайн
    Cкачать фильм Дожить до любви бесплатно
    Дожить до любви скачать торрент в хорошем качестве
    Дожить до любви смотреть онлайн бесплатно в хорошем качестве


    Вы не можете начинать темы
    Вы не можете отвечать на сообщения
    Вы не можете редактировать свои сообщения
    Вы не можете удалять свои сообщения
    Вы не можете голосовать в опросах
    Вы не можете прикреплять файлы к сообщениям
    Вы можете скачивать файлы