Ссылка на приватное зеркало всего за 1$. Внимание количество ограничено!!!

OK

1+1

iTunes

мы

OK

1

WEB-DLRip

Джокер

Пифагор

Ведьмак / The Witcher сериал

Лицензия

ПШазам

ОК

Оно 2

iTunes

30
pack

Вам бонус

ВАЖНО

!!Акция!!

Alien_RageХит недели

RePack

Resident Evil 21

ИГРА 18+

pack

RePack

jed

RePack

fifa19

RePack

Assassins Creed: Odyssey

RePack

NEED FOR SPEED™ PAYBACK

4 сезон

9 сезон

Бесстыжие 9 сезон

Все сериалы

все сериалы на PB.wtf

RePack

FAR CRY 5
  

Посвящение / Pledges (Ди.Дж Ред) [2018, Ужасы, комедия, WEB-DL 720p] MVO [КОЛОБОК] pb.wtf

Посвящение через торрент pb.wtf

Размер: 2.66 GB | Добавлен: 1 год 3 мес. назад | Торрент скачан:43 раза
Скачать  

23-10-2018 11:47 Посвящение Скачать торрент  

Посвящение / PledgesГод выпуска: 2018
Страна: США
Жанр: Ужасы, комедия
Продолжительность: 01:19:24
Перевод: Любительский (многоголосый) | КОЛОБОК
Субтитры: отсутствуют

Режиссер: Ди.Дж Ред

rating

В ролях:

А.Дж. Дэвис, Тим Сумер, Наташа Халаби, Рен Харрис, Калида Джонс, Скарлет Меллингер, Сьерра Меллингер, Эверетт Мосс, Ребекка Ли Робертсон, Тайлер Штрассель

Описание:

С мешками на головах и в одном белье, группа студентов должна пройти в лесу последний из обрядов посвящения в студенческое братство. Только вот издевательства членов братства - далеко не самое худшее, через что им придётся пройти...

Качество: WEB-DL 720p
Формат: MKV

Видео: h.264, 4 405 Кбит/с, 1280x720
Аудио#1: Русский, (AC3, 2 ch, 384 Кбит/с)
скриншот  скриншот  скриншот  

Общее
Уникальный идентификатор : 207319920569082415097734553876492035640 (0x9BF85D435E1AA24F843F536B68F5A638)
Полное имя : D:\Pledges.2018.Pk.WEB-DL.72Op.mkv
Формат : Matroska
Версия формата : Version 2
Размер файла : 2,66 Гбайт
Продолжительность : 1 ч. 19 м.
Режим общего битрейта : Переменный
Общий поток : 4791 Кбит/сек
Дата кодирования : UTC 2018-10-22 17:58:42
Программа кодирования : mkvmerge v8.3.0 ('Over the Horizon') 64bit
Библиотека кодирования : libebml v1.3.1 + libmatroska v1.4.2

Видео
Идентификатор : 1
Формат : AVC
Формат/Информация : Advanced Video Codec
Профиль формата : High@L4.1
Параметр CABAC формата : Да
Параметр RefFrames формата : 4 кадра
Идентификатор кодека : V_MPEG4/ISO/AVC
Продолжительность : 1 ч. 19 м.
Вид битрейта : Переменный
Битрейт : 4405 Кбит/сек
Максимальный битрейт : 5000 Кбит/сек
Ширина : 1280 пикселей
Высота : 720 пикселей
Соотношение сторон : 16:9
Режим частоты кадров : Постоянный
Частота кадров : 23,976 (24000/1001) кадра/сек
Стандарт вещания : Component
Цветовое пространство : YUV
Субдискретизация насыщенности : 4:2:0
Битовая глубина : 8 бит
Тип развёртки : Прогрессивная
Бит/(Пиксели*Кадры) : 0.195
Размер потока : 2,39 Гбайт (90%)
Default : Да
Forced : Нет
Цветовой диапазон : Limited
Основные цвета : BT.709
Характеристики трансфера : BT.709
Коэффициенты матрицы : BT.709

Аудио
Идентификатор : 2
Формат : AC-3
Формат/Информация : Audio Coding 3
Расширение режима : CM (complete main)
Параметр Endianness формата : Big
Идентификатор кодека : A_AC3
Продолжительность : 1 ч. 19 м.
Вид битрейта : Постоянный
Битрейт : 384 Кбит/сек
Каналы : 2 канала
Расположение каналов : Front: L R
Частота : 48,0 КГц
Частота кадров : 31,250 кадров/сек (1536 spf)
Метод сжатия : С потерями
Размер потока : 218 Мбайт (8%)
Default : Да
Forced : Нет

pb.wtf



Скачать Посвящение через торрент https://d.radikal.ru/d24/1810/d1/cb99d16e1716.jpg Скачать фильм Посвящение через торрент бесплантно в хорошем качестве Описание: С мешками на головах и в одном белье, группа студентов должна пройти в лесу последний из обрядов посвящения в студенческое ... 10 10 2
Торрент: Зарегистрирован [2018-10-23 11:47] · скачан: 43 раз
Статус: T временная
Размер: 2.66 GB
Как cкачать? Как скачать Посвящение через торрент | qTorrent

% Раздел Тема Автор DL S | L
T Фильмы (мультфильмы) cо спонсором показа (Новинки AVI/MKV) [ 1.37 GB ] Посвящение / Pledges [2018 WEB-DLRip] MVO [КОЛОБОК] bober100 Скачать
1 | 0

28-11-2019 20:33  

Отключить всю рекламу на сайте

    Дорогой пользователь! Огромная просьба, поблагодарите релизера, оцените раздачу и оставьте свои комментарий, если Вы скачали Посвящение через торрент бесплатно! Внесите свою лепту в развитие PiratBit!
    Комментировать посты могут только пользователи прошедшие не сложную регистрацию
    Показать сообщения:    

    Посвящение через торрент
    Скачать бесплатно Посвящение
    Посвящение скачать торрент
    Посвящение смотреть онлайн
    Cкачать фильм Посвящение бесплатно
    Посвящение скачать торрент в хорошем качестве
    Посвящение смотреть онлайн бесплатно в хорошем качестве


    Вы не можете начинать темы
    Вы не можете отвечать на сообщения
    Вы не можете редактировать свои сообщения
    Вы не можете удалять свои сообщения
    Вы не можете голосовать в опросах
    Вы не можете прикреплять файлы к сообщениям
    Вы можете скачивать файлы