2 сезон

iTunes

1 сезон

1

iTunes

iTunes

iTunes

1 сезон

RePack

30

ИГРА 18+

pack

ВАЖНО

!!Акция!!

Alien_RageХит недели

RePack

MK11
pack

Забери бонус

RePack

jed

!!Акция!!

Alien_Rage

RePack

fifa19

RePack

Assassins Creed: Odyssey

RePack

NEED FOR SPEED™ PAYBACK

4 сезон

9 сезон

Бесстыжие 9 сезон

Все сериалы

все сериалы на PB.wtf

RePack

FAR CRY 5
  

В поисках йети / Mission Kathmandu: The Adventures of Nelly & Simon (Пьер Греко, Нэнси Севард) [2017, Мультфильм, комедия, приключения, WEB-DLRip-AVC] DUB [iTunes] pb.wtf

В поисках йети через торрент pb.wtf

Размер: 1.47 GB | Добавлен: 2 года назад | Торрент скачан:115 раз
Скачать  

23-10-2018 12:21 В поисках йети Скачать торрент  

В поисках йети / Mission Kathmandu: The Adventures of Nelly & Simon
Год выпуска: 2017
Страна: Канада
Жанр: Мультфильм, комедия, приключения
Продолжительность: 01:24:10
Перевод: Дублированный | iTunes
Субтитры: отсутствуют

Режиссер: Пьер Греко, Нэнси Севард

rating

В ролях:

Сильви Моро, Гийом Леме-Тивьерж, Рашид Бадури, Александрина Уоррен, Стефан Крит, Эдгар Фруатье, Себастьен Бенуа, Бертран Ален, Саймон-Пьер Гарипи, Мартин Бойли

Описание:

Увлекательные приключения частного детектива Нелли и ботаника-ученого Саймона, которые искренне верят в существование снежного человека Йети.

Чтобы доказать, что мифический зверь существует, исследователям придется отправиться в самое сердце Гималаев и найти его!


Качество: WEB-DLRip-AVC
Формат: MKV

Видео: 1024x550 (1.85:1), 23.976 fps, MPEG-4 AVC ~ 2110 Кb/s (0.156 bit/pixel)
Аудио: AC3, 48.0 KHz, 6 ch, 384 kbps
скриншот  скриншот  скриншот  скриншот  

General
Unique ID : 253190778175024950419299687750397619647 (0xBE7AC5276FAAE392A0E246CB20686DBF)
Complete name : Mission Kathmandu The Adventures of Nelly & Simon.2018.WEB-DLRip.[by Kaztorrents].mkv
Format : Matroska
Format version : Version 2
File size : 1.47 GiB
Duration : 1 h 24 min
Overall bit rate : 2 496 kb/s
Encoded date : UTC 2018-10-23 10:41:07
Writing application : mkvmerge v7.8.0 ('River Man') 32bit built on Apr 3 2015 12:11:22
Writing library : libebml v1.3.1 + libmatroska v1.4.2

Video
ID : 1
Format : AVC
Format/Info : Advanced Video Codec
Format profile : High@L4
Format settings, CABAC : Yes
Format settings, ReFrames : 12 frames
Codec ID : V_MPEG4/ISO/AVC
Duration : 1 h 24 min
Bit rate : 2 110 kb/s
Width : 1 024 pixels
Height : 550 pixels
Display aspect ratio : 1.85:1
Frame rate mode : Constant
Frame rate : 23.976 (24000/1001) FPS
Color space : YUV
Chroma subsampling : 4:2:0
Bit depth : 8 bits
Scan type : Progressive
Bits/(Pixel*Frame) : 0.156
Stream size : 1.21 GiB (83%)
Writing library : x264 core 146 r2538 121396c
Encoding settings : cabac=1 / ref=12 / deblock=1:-2:-2 / analyse=0x3:0x113 / me=umh / subme=10 / psy=1 / psy_rd=1.00:0.00 / mixed_ref=1 / me_range=32 / chroma_me=1 / trellis=2 / 8x8dct=1 / cqm=0 / deadzone=21,11 / fast_pskip=0 / chroma_qp_offset=-2 / threads=6 / lookahead_threads=1 / sliced_threads=0 / nr=0 / decimate=1 / interlaced=0 / bluray_compat=0 / constrained_intra=0 / bframes=10 / b_pyramid=2 / b_adapt=2 / b_bias=0 / direct=3 / weightb=1 / open_gop=0 / weightp=2 / keyint=240 / keyint_min=23 / scenecut=40 / intra_refresh=0 / rc_lookahead=40 / rc=2pass / mbtree=0 / bitrate=2110 / ratetol=1.0 / qcomp=0.60 / qpmin=0 / qpmax=69 / qpstep=4 / cplxblur=20.0 / qblur=0.5 / vbv_maxrate=50000 / vbv_bufsize=62500 / nal_hrd=none / filler=0 / ip_ratio=1.40 / pb_ratio=1.30 / aq=1:1.00
Default : Yes
Forced : No

Audio
ID : 2
Format : AC-3
Format/Info : Audio Coding 3
Mode extension : CM (complete main)
Format settings, Endianness : Big
Codec ID : A_AC3
Duration : 1 h 24 min
Bit rate mode : Constant
Bit rate : 384 kb/s
Channel(s) : 6 channels
Channel positions : Front: L C R, Side: L R, LFE
Sampling rate : 48.0 kHz
Frame rate : 31.250 FPS (1536 spf)
Bit depth : 16 bits
Compression mode : Lossy
Stream size : 231 MiB (15%)
Default : Yes
Forced : No

pb.wtf



Скачать В поисках йети через торрент http://i96.fastpic.ru/big/2018/1023/30/8cfdff797c6fefc92911991ac2f47130.jpg Скачать фильм В поисках йети через торрент бесплантно в хорошем качестве Описание: Увлекательные приключения частного детектива Нелли и ботаника-ученого Саймона, которые искренне верят в существование снежного ... 10 10 3
Торрент: Зарегистрирован [2018-10-23 12:21] · скачан: 115 раз
Статус: √ проверено
Размер: 1.47 GB
Как cкачать? Как скачать В поисках йети через торрент | qTorrent

28-11-2019 20:33  

Отключить всю рекламу на сайте

    Дорогой пользователь! Огромная просьба, поблагодарите релизера, оцените раздачу и оставьте свои комментарий, если Вы скачали В поисках йети через торрент бесплатно! Внесите свою лепту в развитие PiratBit!
    Комментировать посты могут только пользователи прошедшие не сложную регистрацию
    Показать сообщения:    

    В поисках йети через торрент
    Скачать бесплатно В поисках йети
    В поисках йети скачать торрент
    В поисках йети смотреть онлайн
    Cкачать фильм В поисках йети бесплатно
    В поисках йети скачать торрент в хорошем качестве
    В поисках йети смотреть онлайн бесплатно в хорошем качестве


    Вы не можете начинать темы
    Вы не можете отвечать на сообщения
    Вы не можете редактировать свои сообщения
    Вы не можете удалять свои сообщения
    Вы не можете голосовать в опросах
    Вы не можете прикреплять файлы к сообщениям
    Вы можете скачивать файлы