новый адрес
Ссылка на приватное зеркало всего за 1$. Внимание количество ограничено!!!

iTunes

1+1

iTunes

мы

WEB-DL

1

iTunes

Чернобыль

iTunes

Ральф против интернета

Лицензия

ПШазам

Лицензия

Оно 2

Лицензия

30
pack

Вам бонус

ВАЖНО

!!Акция!!

Alien_RageХит недели

RePack

Resident Evil 21

ИГРА 18+

pack

RePack

jed

!!Акция!!

Alien_Rage

RePack

fifa19

RePack

Assassins Creed: Odyssey

RePack

NEED FOR SPEED™ PAYBACK

3 сезон

9 сезон

Бесстыжие 9 сезон

Все сериалы

все сериалы на PB.wtf

RePack

FAR CRY 5
Ребята, катастрофически не хватает 1900р. для оплаты серверов за Октябрь (всвязи с блокировками трафик упал в 3 раза), 1-2р., выручайте.
  

Бои без правил / A Prayer Before Dawn (Жан-Стефан Совер) [2017, Боевик, драма, криминал, биография, спорт, BDRip-AVC] MVO [HDRezka Studio] +DUB [iTunes] pb.wtf

Бои без правил через торрент pb.wtf

Размер: 2.31 GB | Добавлен: 1 год 1 мес. назад | Торрент скачан:435 раз
Скачать  

23-10-2018 13:02 Бои без правил Скачать торрент  

Бои без правил / A Prayer Before Dawn«Один против самых опасных преступников в смертельной схватке»
Год выпуска: 2017
Страна: Франция, Великобритания, Камбоджа, США, Китай
Жанр: Боевик, драма, криминал, биография, спорт
Продолжительность: 01:56:44
Перевод:

Дублированный | iTunes
Профессиональный (многоголосый) | HDRezka Studio

Субтитры: Русские (форс., полные), Английские (полные, SDH)

Режиссер: Жан-Стефан Совер

rating

В ролях:

Джо Коул, Витхая Пансрингарм, Паня Йиммумрхай, Порнчанок Мабкланг, Николас Шейк, Билли Мур, Сура Сирмалай, Сакда Ниамхом, Сомлок Камсинг, Чалоемпорн Саватсук

Описание:

Молодой британец Билли Мур попадает в одну из тюрем Таиланда, известную своей жестокостью и невыносимыми условиями для заключённых. Чтобы выжить, Билли решает заняться муай-тай - тайским боксом, одним из самых жёстких видов боевых искусств.

Качество: BDRip-AVC
Формат: MKV

Видео: 1024x430 (2.40:1), 23,976 fps, x264 ~1 803 kbps avg, 0.171 bit/pixel
Аудио#1: 48 kHz, DTS , 3/2 (L,C,R,l,r) + LFE ch, ~384.00 kbps avg | RUS (iTunes)
Аудио#2: 48 kHz, AC3 Dolby Digital, 2 (L,R) ch, ~192.00 kbps avg | RUS (HDRezka Studio)
Аудио#3: 48 kHz, AC3 Dolby Digital, 3/2 (L,C,R,l,r) + LFE ch, ~448.00 kbps avg | ENG
скриншот  скриншот  скриншот  скриншот  скриншот  

Общее
Уникальный идентификатор : 5747639262919916609911382477969531225 (0x452F47E96DBEDD9E32BCF80E647A159)
Полное имя : F:OlLanDGroupA.Prayer.Before.Dawn.2017.BDRip.(AVC).OlLanDGroup.mkv
Формат : Matroska
Версия формата : Version 4 / Version 2
Размер файла : 2,31 Гбайт
Продолжительность : 1 ч. 56 м.
Общий поток : 2827 Кбит/сек
Название фильма : Бои без правил.2017 #TorpedoUK#
Дата кодирования : UTC 2018-10-23 12:41:09
Программа кодирования : mkvmerge v25.0.0 ('Prog Noir') 64-bit
Библиотека кодирования : libebml v1.3.6 + libmatroska v1.4.9

Видео
Идентификатор : 1
Формат : AVC
Формат/Информация : Advanced Video Codec
Профиль формата : High@L4.1
Параметр CABAC формата : Да
Параметр ReFrames формата : 10 кадров
Идентификатор кодека : V_MPEG4/ISO/AVC
Продолжительность : 1 ч. 56 м.
Битрейт : 1803 Кбит/сек
Ширина : 1024 пикселя
Высота : 430 пикселей
Соотношение сторон : 2,40:1
Режим частоты кадров : Постоянный
Частота кадров : 23,976 (24000/1001) кадра/сек
Цветовое пространство : YUV
Субдискретизация насыщенности : 4:2:0
Битовая глубина : 8 бит
Тип развёртки : Прогрессивная
Бит/(Пиксели*Кадры) : 0.171
Размер потока : 1,47 Гбайт (64%)
Библиотека кодирования : x264 core 146 r2538 121396c
Настройки программы : cabac=1 / ref=10 / deblock=1:-3:-3 / analyse=0x3:0x113 / me=umh / subme=11 / psy=1 / psy_rd=0.99:0.04 / mixed_ref=1 / me_range=48 / chroma_me=1 / trellis=2 / 8x8dct=1 / cqm=0 / deadzone=21,11 / fast_pskip=1 / chroma_qp_offset=-3 / threads=6 / lookahead_threads=1 / sliced_threads=0 / nr=0 / decimate=1 / interlaced=0 / bluray_compat=0 / constrained_intra=0 / bframes=10 / b_pyramid=2 / b_adapt=2 / b_bias=0 / direct=3 / weightb=1 / open_gop=0 / weightp=2 / keyint=240 / keyint_min=23 / scenecut=40 / intra_refresh=0 / rc_lookahead=40 / rc=2pass / mbtree=0 / bitrate=1803 / ratetol=1.0 / qcomp=0.60 / qpmin=0 / qpmax=69 / qpstep=4 / cplxblur=20.0 / qblur=0.5 / vbv_maxrate=50000 / vbv_bufsize=62500 / nal_hrd=none / filler=0 / ip_ratio=1.40 / pb_ratio=1.30 / aq=1:1.00
Язык : English
Default : Да
Forced : Нет

Аудио #1
Идентификатор : 2
Формат : AC-3
Формат/Информация : Audio Coding 3
Расширение режима : CM (complete main)
Параметр Endianness формата : Big
Идентификатор кодека : A_AC3
Продолжительность : 1 ч. 56 м.
Вид битрейта : Постоянный
Битрейт : 384 Кбит/сек
Каналы : 6 каналов
Расположение каналов : Front: L C R, Side: L R, LFE
Частота : 48,0 КГц
Частота кадров : 31,250 кадров/сек (1536 spf)
Битовая глубина : 16 бит
Метод сжатия : С потерями
Размер потока : 320 Мбайт (14%)
Заголовок : DUB [iTunes]
Default : Да
Forced : Нет

Аудио #2
Идентификатор : 3
Формат : AC-3
Формат/Информация : Audio Coding 3
Расширение режима : CM (complete main)
Параметр Endianness формата : Big
Идентификатор кодека : A_AC3
Продолжительность : 1 ч. 56 м.
Вид битрейта : Постоянный
Битрейт : 192 Кбит/сек
Каналы : 2 канала
Расположение каналов : Front: L R
Частота : 48,0 КГц
Частота кадров : 31,250 кадров/сек (1536 spf)
Битовая глубина : 16 бит
Метод сжатия : С потерями
Размер потока : 160 Мбайт (7%)
Заголовок : MVO [HDRezka Studio]
Язык : Russian
Default : Нет
Forced : Нет

Аудио #3
Идентификатор : 4
Формат : AC-3
Формат/Информация : Audio Coding 3
Расширение режима : CM (complete main)
Параметр Endianness формата : Big
Идентификатор кодека : A_AC3
Продолжительность : 1 ч. 56 м.
Вид битрейта : Постоянный
Битрейт : 448 Кбит/сек
Каналы : 6 каналов
Расположение каналов : Front: L C R, Side: L R, LFE
Частота : 48,0 КГц
Частота кадров : 31,250 кадров/сек (1536 spf)
Битовая глубина : 16 бит
Метод сжатия : С потерями
Размер потока : 374 Мбайт (16%)
Заголовок : [Original]
Язык : English
Default : Нет
Forced : Нет

Текст #1
Идентификатор : 5
Формат : UTF-8
Идентификатор кодека : S_TEXT/UTF8
Идентификатор кодека/Информация : UTF-8 Plain Text
Продолжительность : 1 ч. 27 м.
Битрейт : 4 бит/сек
Count of elements : 69
Размер потока : 2,94 Кбайт (0%)
Заголовок : Forced
Язык : Russian
Default : Да
Forced : Нет

Текст #2
Идентификатор : 6
Формат : UTF-8
Идентификатор кодека : S_TEXT/UTF8
Идентификатор кодека/Информация : UTF-8 Plain Text
Продолжительность : 1 ч. 50 м.
Битрейт : 17 бит/сек
Count of elements : 373
Размер потока : 14,2 Кбайт (0%)
Заголовок : Full
Язык : Russian
Default : Нет
Forced : Нет

Текст #3
Идентификатор : 7
Формат : UTF-8
Идентификатор кодека : S_TEXT/UTF8
Идентификатор кодека/Информация : UTF-8 Plain Text
Продолжительность : 1 ч. 48 м.
Битрейт : 10 бит/сек
Count of elements : 376
Размер потока : 8,28 Кбайт (0%)
Заголовок : Full
Язык : English
Default : Нет
Forced : Нет

Текст #4
Идентификатор : 8
Формат : UTF-8
Идентификатор кодека : S_TEXT/UTF8
Идентификатор кодека/Информация : UTF-8 Plain Text
Продолжительность : 1 ч. 50 м.
Битрейт : 12 бит/сек
Count of elements : 451
Размер потока : 9,88 Кбайт (0%)
Заголовок : SDH
Язык : English
Default : Нет
Forced : Нет

Меню
00:00:00.000 : en:Chapter 1
00:09:36.200 : en:Chapter 2
00:18:15.135 : en:Chapter 3
00:27:09.127 : en:Chapter 4
00:37:21.030 : en:Chapter 5
00:48:31.241 : en:Chapter 6
01:01:07.246 : en:Chapter 7
01:10:45.324 : en:Chapter 8
01:21:01.022 : en:Chapter 9
01:34:04.639 : en:Chapter 10
01:44:58.125 : en:Chapter 11
01:53:27.133 : en:Chapter 12

pb.wtf



Скачать Бои без правил через торрент http://i91.fastpic.ru/big/2018/1011/f7/357cf93d82065d3df5d3af54aea82cf7.jpg Скачать фильм Бои без правил через торрент бесплантно в хорошем качестве Описание: Молодой британец Билли Мур попадает в одну из тюрем Таиланда, известную своей жестокостью и невыносимыми условиями для ... 8.9 10 14
Торрент: Зарегистрирован [2018-10-23 13:02] · скачан: 435 раз
Статус: √ проверено
Размер: 2.31 GB
Как cкачать? Как скачать Бои без правил через торрент | qTorrent

% Раздел Тема Автор DL S | L
Фильмы 2018 [DVDrip, WEB-DLRip, HDrip] (DUB, MVO) [ 1.41 GB ] Бои без правил / A Prayer Before Dawn [2017 биография BDRip] - Twi7ter Скачать
2 | 0
Фильмы 2018 [DVDrip, WEB-DLRip, HDrip] (DUB, MVO) [ 2.13 GB ] Бои без правил / A Prayer Before Dawn [2017 биография BDRip] - Twi7ter Скачать
2 | 0
Фильмы 2018 [DVDrip, WEB-DLRip, HDrip] (DUB, MVO) [ 1.41 GB ] Бои без правил / A Prayer Before Dawn [2017 биография BDRip] bober100 Скачать
2 | 0
Фильмы [HD 720p, 1080p] (Хороший звук DUB, MVO) [ 12.3 GB ] Бои без правил / A Prayer Before Dawn [2017 биография BDRip 1080p] MVO [HDRezka Studio] + bober100 Скачать
2 | 0
Фильмы (Blu-ray, BD-Remux, HDDVD) [ 25.61 GB ] Бои без правил / A Prayer Before Dawn [2017 биография BD Remux 1080p] MVO [HDRezka Studio] bober100 Скачать
1 | 0
T R.G. Resident & PiratVoice - Фильмы, Видео [ 1.46 GB ] Бои без правил / Предрассветная молитва / A Prayer Before Dawn [2017 биография WEB-DLRip от R.G. Resident] MVO [HDRezka Studio] -Lexx- Скачать
2 | 0

28-11-2019 20:33  

Отключить всю рекламу на сайте

23-10-2018 13:28 Бои без правил Скачать торрент  

нормаpb.wtf



23-10-2018 17:47 Бои без правил Скачать торрент  

Какого Хрена это здесь!!!! pb.wtf



26-10-2018 14:51 Бои без правил Скачать торрент  

ALEXUSS писал(а):

Какого Хрена это здесь!!!!

А ты какого здесь? Достойный фильм, можно глянуть в отличие от современного трешакаpb.wtf



27-10-2018 08:08 Бои без правил Скачать торрент  

Sarty писал(а):

ALEXUSS писал(а):

Какого Хрена это здесь!!!!

А ты какого здесь? Достойный фильм, можно глянуть в отличие от современного трешака

Он имел ввиду, почему французский фильм находится в разделе с русскими.pb.wtf



13-11-2018 08:20 Бои без правил Скачать торрент  

Почему фильм в категории Русское кино?! Ау, модерыpb.wtf



    Дорогой пользователь! Огромная просьба, поблагодарите релизера, оцените раздачу и оставьте свои комментарий, если Вы скачали Бои без правил через торрент бесплатно! Внесите свою лепту в развитие PiratBit!
    Комментировать посты могут только пользователи прошедшие не сложную регистрацию
    Показать сообщения:    

    Бои без правил через торрент
    Скачать бесплатно Бои без правил
    Бои без правил скачать торрент
    Бои без правил смотреть онлайн
    Cкачать фильм Бои без правил бесплатно
    Бои без правил скачать торрент в хорошем качестве
    Бои без правил смотреть онлайн бесплатно в хорошем качестве


    Вы не можете начинать темы
    Вы не можете отвечать на сообщения
    Вы не можете редактировать свои сообщения
    Вы не можете удалять свои сообщения
    Вы не можете голосовать в опросах
    Вы не можете прикреплять файлы к сообщениям
    Вы можете скачивать файлы