Ссылка на приватное зеркало всего за 1$. Внимание количество ограничено!!!

iTunes

1+1

iTunes

мы

WEB-DL

1

iTunes

Чернобыль

iTunes

Ральф против интернета

Лицензия

ПШазам

Лицензия

Оно 2

Лицензия

30
pack

Вам бонус

ВАЖНО

!!Акция!!

Alien_RageХит недели

RePack

Resident Evil 21

ИГРА 18+

pack

RePack

jed

!!Акция!!

Alien_Rage

RePack

fifa19

RePack

Assassins Creed: Odyssey

RePack

NEED FOR SPEED™ PAYBACK

3 сезон

9 сезон

Бесстыжие 9 сезон

Все сериалы

все сериалы на PB.wtf

RePack

FAR CRY 5
Ребята, катастрофически не хватает 1900р. для оплаты серверов за Октябрь (всвязи с блокировками трафик упал в 3 раза), 1-2р., выручайте.
  

Клуб любителей книг и пирогов из картофельных очистков / The Guernsey Literary and Potato Peel Pie Society (Майк Ньюэлл) [2018, Драма, мелодрама, история, BDRip 720p] MVO [Jaskier] pb.wtf

Клуб любителей книг и пирогов из картофельных очистков через торрент pb.wtf

Размер: 6.97 GB | Добавлен: 11 мес. назад | Торрент скачан:129 раз
Скачать  

23-10-2018 13:22 Клуб любителей книг и пирогов из картофельных очистков Скачать торрент  

Клуб любителей книг и пирогов из картофельных очистков / The Guernsey Literary and Potato Peel Pie Society
Год выпуска: 2018
Страна: Великобритания, США
Жанр: Драма, мелодрама, история
Продолжительность: 02:03:27
Перевод: Профессиональный (многоголосый) | Jaskier
Субтитры: отсутствуют

Режиссер: Майк Ньюэлл

rating


В ролях:

Лили Джеймс, Джессика Браун-Финдли, Мэттью Гуд, Глен Пауэлл, Михил Хаушман, Кэтрин Паркинсон, Пенелопа Уилтон, Том Кортни, Брона Галлахер, Марек Оравек

Описание:

В послевоенном Лондоне молодая писательница Джулиет пытается найти сюжет для новой книги, но об ужасах войны писать ей решительно не хочется, прочие темы кажутся либо скучными, либо неуместными. На помощь приходит случай - в виде письма одного свиновода с острова Гернси. Оказывается, даже свинари любят почитать, и неведомый Доуси, к которому в руки попала книга, некогда принадлежавшая Джулиет, просит ее посоветовать хорошую книжную лавку. Дело в том, что на Гернси с книгами сейчас туго, поскольку остров, в годы войны оккупированный немцами, только-только возрождается к жизни. Письмо переворачивает жизнь Джулиет. История книжного клуба, ставшего прикрытием для запрещенных встреч жителей деревни, увлекает и затягивает ее. Так начинается переписка с самыми разными людьми.

Качество: BDRip 720p
Формат: MKV

Видео: 1280x690 | X264/MPEG4-AVC | ~6800 kbps | 24,000 fps
Аудио#1: AC3 | 48 KHz | 5.1 (Front: L С R Side: L R) + LFE | ~640 kbps [RUS]
Аудио#2: AC3 | 48 KHz | 5.1 (Front: L С R Side: L R) + LFE | ~640 kbps [ENG]
скриншот  скриншот  скриншот  

Общее
Уникальный идентификатор : 240874254708218460823682765268512846557 (0xB536B1A9D1262828BB106EDC52AAB2DD)
Полное имя : D:\The Guernsey Literary and Potato Peel Pie Society 2018 720p Jaskier.mkv
Формат : Matroska
Версия формата : Version 2
Размер файла : 6,97 Гбайт
Продолжительность : 2 ч. 3 м.
Общий поток : 8083 Кбит/сек
Дата кодирования : UTC 2018-10-27 11:56:30
Программа кодирования : mkvmerge v7.8.0 ('River Man') 32bit built on Apr 3 2015 12:11:22
Библиотека кодирования : libebml v1.3.1 + libmatroska v1.4.2

Видео
Идентификатор : 1
Формат : AVC
Формат/Информация : Advanced Video Codec
Профиль формата : High@L4.1
Параметр CABAC формата : Да
Параметр RefFrames формата : 9 кадров
Идентификатор кодека : V_MPEG4/ISO/AVC
Продолжительность : 2 ч. 3 м.
Битрейт : 6800 Кбит/сек
Ширина : 1280 пикселей
Высота : 690 пикселей
Соотношение сторон : 1,85:1
Режим частоты кадров : Постоянный
Частота кадров : 24,000 кадра/сек
Цветовое пространство : YUV
Субдискретизация насыщенности : 4:2:0
Битовая глубина : 8 бит
Тип развёртки : Прогрессивная
Бит/(Пиксели*Кадры) : 0.321
Размер потока : 5,73 Гбайт (82%)
Библиотека кодирования : x264 core 155 r2901 7d0ff22
Настройки программы : cabac=1 / ref=9 / deblock=1:-3:-3 / analyse=0x3:0x133 / me=umh / subme=10 / psy=1 / psy_rd=1.00:0.00 / mixed_ref=1 / me_range=32 / chroma_me=1 / trellis=2 / 8x8dct=1 / cqm=0 / deadzone=21,11 / fast_pskip=0 / chroma_qp_offset=-2 / threads=12 / lookahead_threads=1 / sliced_threads=0 / nr=0 / decimate=1 / interlaced=0 / bluray_compat=0 / constrained_intra=0 / bframes=6 / b_pyramid=2 / b_adapt=2 / b_bias=0 / direct=3 / weightb=1 / open_gop=0 / weightp=2 / keyint=230 / keyint_min=22 / scenecut=40 / intra_refresh=0 / rc_lookahead=60 / rc=2pass / mbtree=1 / bitrate=6800 / ratetol=1.0 / qcomp=0.60 / qpmin=0 / qpmax=69 / qpstep=4 / cplxblur=20.0 / qblur=0.5 / vbv_maxrate=50000 / vbv_bufsize=50000 / nal_hrd=none / filler=0 / ip_ratio=1.40 / aq=1:1.00
Default : Да
Forced : Нет

Аудио #1
Идентификатор : 2
Формат : AC-3
Формат/Информация : Audio Coding 3
Расширение режима : CM (complete main)
Параметр Endianness формата : Big
Идентификатор кодека : A_AC3
Продолжительность : 2 ч. 3 м.
Вид битрейта : Постоянный
Битрейт : 640 Кбит/сек
Каналы : 6 каналов
Расположение каналов : Front: L C R, Side: L R, LFE
Частота : 48,0 КГц
Частота кадров : 31,250 кадров/сек (1536 spf)
Метод сжатия : С потерями
Размер потока : 565 Мбайт (8%)
Заголовок : Jaskier
Язык : Russian
Default : Да
Forced : Нет

Аудио #2
Идентификатор : 3
Формат : AC-3
Формат/Информация : Audio Coding 3
Расширение режима : CM (complete main)
Параметр Endianness формата : Big
Идентификатор кодека : A_AC3
Продолжительность : 2 ч. 3 м.
Вид битрейта : Постоянный
Битрейт : 640 Кбит/сек
Каналы : 6 каналов
Расположение каналов : Front: L C R, Side: L R, LFE
Частота : 48,0 КГц
Частота кадров : 31,250 кадров/сек (1536 spf)
Метод сжатия : С потерями
Размер потока : 565 Мбайт (8%)
Язык : English
Default : Нет
Forced : Нет

Меню
00:00:00.000 : en:00:00:00.000
00:10:31.417 : en:00:10:31.417
00:18:53.833 : en:00:18:53.833
00:29:07.750 : en:00:29:07.750
00:40:53.750 : en:00:40:53.750
00:49:02.167 : en:00:49:02.167
00:58:55.375 : en:00:58:55.375
01:07:56.125 : en:01:07:56.125
01:17:33.458 : en:01:17:33.458
01:27:39.208 : en:01:27:39.208
01:37:37.625 : en:01:37:37.625
01:46:54.250 : en:01:46:54.250

pb.wtf



Скачать Клуб любителей книг и пирогов из картофельных очистков через торрент http://i91.fastpic.ru/big/2018/1006/0d/38589e8e69b1d0d96df7431af1e2030d.png Скачать фильм Клуб любителей книг и пирогов из картофельных очистков через торрент бесплантно в хорошем качестве Описание: В послевоенном Лондоне молодая писательница Джулиет пытается найти сюжет для новой книги, но об ужасах войны писать ей решительно ... 9.4 10 5
Торрент: Зарегистрирован [2018-12-31 15:30] · скачан: 129 раз
Статус: √ проверено
Размер: 6.97 GB
Как cкачать? Как скачать Клуб любителей книг и пирогов из картофельных очистков через торрент | qTorrent

% Раздел Тема Автор DL S | L
Фильмы 2018 [DVDrip, WEB-DLRip, HDrip] (DUB, MVO) [ 1.45 GB ] Клуб любителей книг и пирогов из картофельных очистков / The Guernsey Literary and Potato Peel Pie Society [2018 история BDRip 1080p] bober100 Скачать
6 | 0
Фильмы [HD 720p, 1080p] (Хороший звук DUB, MVO) [ 5.76 GB ] Клуб любителей книг и пирогов из картофельных очистков / The Guernsey Literary and Potato Peel Pie Society [2018 история BDRip 720p] +MVO [Jaskier] bober100 Скачать
2 | 0
Фильмы [HD 720p, 1080p] (Хороший звук DUB, MVO) [ 9.26 GB ] Клуб любителей книг и пирогов из картофельных очистков / The Guernsey Literary and Potato Peel Pie Society [2018 история BDRip 1080p] +MVO [Jaskier] bober100 Скачать
3 | 0
Фильмы 2018 [DVDrip, WEB-DLRip, HDrip] (DUB, MVO) [ 1.46 GB ] Клуб любителей книг и пирогов из картофельных очистков / The Guernsey Literary and Potato Peel Pie Society [2018 история HDRip] [MVO] killermax2013 Скачать
1 | 0
Фильмы (Blu-ray, BD-Remux, HDDVD) [ 29.22 GB ] Клуб любителей книг и пирогов из картофельных очистков / The Guernsey Literary and Potato Peel Pie Society [2018 история BDRemux 1080p] [MVO] killermax2013 Скачать
1 | 0
T Фильмы (мультфильмы) cо спонсором показа (Новинки AVI/MKV) [ 1.46 GB ] Клуб любителей книг и пирогов из картофельных очистков / The Guernsey Literary and Potato Peel Pie Society [2018 история HDRip] MVO [Jaskier] bober100 Скачать
1 | 0

28-11-2019 20:33  

Отключить всю рекламу на сайте

    Дорогой пользователь! Огромная просьба, поблагодарите релизера, оцените раздачу и оставьте свои комментарий, если Вы скачали Клуб любителей книг и пирогов из картофельных очистков через торрент бесплатно! Внесите свою лепту в развитие PiratBit!
    Комментировать посты могут только пользователи прошедшие не сложную регистрацию
    Показать сообщения:    

    Клуб любителей книг и пирогов из картофельных очистков через торрент
    Скачать бесплатно Клуб любителей книг и пирогов из картофельных очистков
    Клуб любителей книг и пирогов из картофельных очистков скачать торрент
    Клуб любителей книг и пирогов из картофельных очистков смотреть онлайн
    Cкачать фильм Клуб любителей книг и пирогов из картофельных очистков бесплатно
    Клуб любителей книг и пирогов из картофельных очистков скачать торрент в хорошем качестве
    Клуб любителей книг и пирогов из картофельных очистков смотреть онлайн бесплатно в хорошем качестве


    Вы не можете начинать темы
    Вы не можете отвечать на сообщения
    Вы не можете редактировать свои сообщения
    Вы не можете удалять свои сообщения
    Вы не можете голосовать в опросах
    Вы не можете прикреплять файлы к сообщениям
    Вы можете скачивать файлы