Ссылка на приватное зеркало нашего сайта всего за 1$. Внимание количество ограничено!!!

2 сезон

iTunes

1 сезон

1

2 сезон

2 сезон

iTunes

1 сезон

RePack

30

Ultimate

ВАЖНО

ИГРА 18+

pack

RePack

MK11
pack

Забери бонус

RePack

jed

!!Акция!!

Alien_Rage

RePack

fifa19

RePack

Assassins Creed: Odyssey

RePack

NEED FOR SPEED™ PAYBACK

4 сезон

9 сезон

Бесстыжие 9 сезон

Все сериалы

все сериалы на PB.wtf

RePack

FAR CRY 5
  

Навсегда / Forever / Сезон: 1 / Серии: 1-8 из 8 [2018, Комедия, WEB-DL 720p] [DVO] (Кубик в Кубе) pb.wtf

Навсегда через торрент pb.wtf

Размер: 4.92 GB | Добавлен: 2 года 1 мес. назад | Торрент скачан:24 раза
Скачать  

23-10-2018 17:13 Навсегда Скачать торрент  

Навсегда / Forever Год выпуска: 2018
Жанр: Комедия
Выпущено: США, Amazon Studios,NBC Universal Network TV
Продолжительность: 8 x ~ 00:26:00
Перевод: Профессиональный (двухголосый закадровый)*Кубик в Кубе*

Режиссер: Алан Янг, Мигель Артета, Яница Браво

В ролях: Майя Рудольф, Фред Армисен, Кэтрин Кинер, Ной Роббинс, Шэрон Оми, Ким Уитли, Джулия Ормонд, Обба Бабатунде, Питер Уэллер, Чарльз Эмметт

О фильме: Супруги Джун и Оскар живут спокойной, пускай и не самой разнообразной, жизнью. На протяжении многих лет они едят одну и ту же еду, обсуждают одни и те же темы и регулярно отдыхают в домике у озера. Но все меняется, когда Джун уговаривает Оскара отправиться на горнолыжный курорт.



Релиз -- CasStudio
Работа со звуком: Messafan

Качество: WEB-DL (720p)
Контейнер: MKV
Видео: 1280x720 at 23.976 fps, MPEG-4 AVC, ~2000 kbps avg
Аудио 1: 48 kHz, AC3, 3/2 (L,C,R,l,r) + LFE ch, ~640.00 kbps avg |Двухголосый закадровый, Кубик в Кубе|
Аудио 2: English: 48 kHz, AC3, 3/2 (L,C,R,l,r) + LFE ch, ~640.00 kbps avg
скриншот   скриншот   скриншот  
General
Unique ID : 192921260930386643716035374637850728991 (0x912348888AF3B5AFA2E873F49CB69A1F)
Complete name : E:\Forever.2018.S01.720p.WEBDL.CasStudio.TV\Forever.2018.S01E01.Together.Forever.720p.WEB-DL.KvK.CasStudio.TV.mkv
Format : Matroska
Format version : Version 4 / Version 2
File size : 602 MiB
Duration : 25 min 50 s
Overall bit rate : 3 258 kb/s
Movie name : Forever 2018 01x01 (Together Forever) - release by messafan for CasStudio.TV
Encoded date : UTC 2018-09-20 12:35:59
Writing application : mkvmerge v6.7.0 ('Back to the Ground') 64bit built on Jan 8 2014 15:10:52
Writing library : libebml v1.3.0 + libmatroska v1.4.1

Video
ID : 1
Format : AVC
Format/Info : Advanced Video Codec
Format profile : High@L3.1
Format settings : CABAC / 5 Ref Frames
Format settings, CABAC : Yes
Format settings, RefFrames : 5 frames
Codec ID : V_MPEG4/ISO/AVC
Duration : 25 min 50 s
Bit rate : 1 913 kb/s
Width : 1 280 pixels
Height : 720 pixels
Display aspect ratio : 16:9
Frame rate mode : Constant
Frame rate : 23.976 (24000/1001) FPS
Color space : YUV
Chroma subsampling : 4:2:0
Bit depth : 8 bits
Scan type : Progressive
Bits/(Pixel*Frame) : 0.087
Stream size : 354 MiB (59%)
Default : Yes
Forced : No
Color range : Limited
Color primaries : BT.709
Transfer characteristics : BT.709
Matrix coefficients : BT.709

Audio #1
ID : 2
Format : AC-3
Format/Info : Audio Coding 3
Format settings, Endianness : Big
Codec ID : A_AC3
Duration : 25 min 50 s
Bit rate mode : Constant
Bit rate : 640 kb/s
Channel(s) : 6 channels
Channel positions : Front: L C R, Side: L R, LFE
Sampling rate : 48.0 kHz
Frame rate : 31.250 FPS (1536 SPF)
Bit depth : 16 bits
Compression mode : Lossy
Stream size : 118 MiB (20%)
Title : KvK DD5.1 @ 640kbps
Language : Russian
Service kind : Complete Main
Default : Yes
Forced : No

Audio #2
ID : 3
Format : AC-3
Format/Info : Audio Coding 3
Format settings, Endianness : Big
Codec ID : A_AC3
Duration : 25 min 50 s
Bit rate mode : Constant
Bit rate : 640 kb/s
Channel(s) : 6 channels
Channel positions : Front: L C R, Side: L R, LFE
Sampling rate : 48.0 kHz
Frame rate : 31.250 FPS (1536 SPF)
Bit depth : 16 bits
Compression mode : Lossy
Stream size : 118 MiB (20%)
Title : English DD5.1 @ 640kbps
Language : English
Service kind : Complete Main
Default : No
Forced : No

Text
ID : 4
Format : UTF-8
Codec ID : S_TEXT/UTF8
Codec ID/Info : UTF-8 Plain Text
Title : SDH
Language : English
Default : No
Forced : No

Menu
00:00:00.000 : en:Amazon Original
00:00:05.000 : en:Title Sequence
00:00:24.000 : en:How it all began
00:07:39.000 : en:Picking up a new hobby
00:13:03.000 : en:The day doesn't go as planned
00:16:14.000 : en:The ski class starts
00:20:23.000 : en:Oscar and June have different plans
00:24:18.000 : en:End Credits
pb.wtf



Скачать Навсегда через торрент https://i96.fastpic.ru/big/2018/1023/50/11af38774b13c15a281895ae8e72f850.png Скачать фильм Навсегда через торрент бесплантно в хорошем качестве О фильме: Супруги Джун и Оскар живут спокойной, пускай и не самой разнообразной, жизнью. На протяжении многих лет они едят одну и ту же ... 5 10 1
Торрент: Зарегистрирован [2018-10-23 17:13] · скачан: 24 раз
Статус: √ проверено
Размер: 4.92 GB
Как cкачать? Как скачать Навсегда через торрент | qTorrent

28-11-2019 20:33  

Отключить всю рекламу на сайте

    Дорогой пользователь! Огромная просьба, поблагодарите релизера, оцените раздачу и оставьте свои комментарий, если Вы скачали Навсегда через торрент бесплатно! Внесите свою лепту в развитие PiratBit!
    Комментировать посты могут только пользователи прошедшие не сложную регистрацию
    Показать сообщения:    

    Навсегда через торрент
    Скачать бесплатно Навсегда
    Навсегда скачать торрент
    Навсегда смотреть онлайн
    Cкачать фильм Навсегда бесплатно
    Навсегда скачать торрент в хорошем качестве
    Навсегда смотреть онлайн бесплатно в хорошем качестве


    Вы не можете начинать темы
    Вы не можете отвечать на сообщения
    Вы не можете редактировать свои сообщения
    Вы не можете удалять свои сообщения
    Вы не можете голосовать в опросах
    Вы не можете прикреплять файлы к сообщениям
    Вы можете скачивать файлы