Ссылка на приватное зеркало всего за 1$. Внимание количество ограничено!!!

OK

1+1

iTunes

мы

OK

1

WEB-DLRip

Джокер

Пифагор

Ведьмак / The Witcher сериал

Лицензия

ПШазам

ОК

Оно 2

iTunes

30
pack

Вам бонус

ВАЖНО

!!Акция!!

Alien_RageХит недели

RePack

Resident Evil 21

ИГРА 18+

pack

RePack

jed

RePack

fifa19

RePack

Assassins Creed: Odyssey

RePack

NEED FOR SPEED™ PAYBACK

4 сезон

9 сезон

Бесстыжие 9 сезон

Все сериалы

все сериалы на PB.wtf

RePack

FAR CRY 5
  

Пурга / The Blizzard / Dao gao yi zhang (Цзян Кайян) [2018, драма, криминал, WEB-DL 720p] MVO [КОЛОБОК] pb.wtf

Пурга через торрент pb.wtf

Размер: 3.78 GB | Добавлен: 1 год 2 мес. назад | Торрент скачан:23 раза
Скачать  

23-10-2018 17:49 Пурга Скачать торрент  

Пурга / The Blizzard / Dao gao yi zhangГод выпуска: 2018
Страна: Китай
Жанр: драма, криминал
Продолжительность: 01:40:32
Перевод: Любительский (многоголосый) | КОЛОБОК
Субтитры: отсутствуют

Режиссер: Цзян Кайян

rating

В ролях:

Не Юань, Тань Кай, Юй Минцзя, Цюй Гаовэй, Чжан Лу, Дун Божуй, Лю Юнси, Пэн Лин, Ши Гуанхуэй, Сун Чуньли

Описание:

История двух друзей-выпускников полицейской академии и их отчисленного товарища Суна. Последнего внедряют в преступную группировку вместе с отцом одного из друзей, но из-за бандитской диверсии отец погибает, а подозрение в его смерти падает на Суна. Теперь, объятый горем сын жаждет мести...

Качество: WEB-DL 720p
Формат: MKV

Видео: h.264,5 002 Кбит/с, 1280x544
Аудио#1: Русский, (AC3, 2 ch, 384 Кбит/с)
скриншот  скриншот  скриншот  

Общее
Уникальный идентификатор : 236878290840682148837674685842919675130 (0xB235196F095DB46CBC0FE24ABAAA54FA)
Полное имя : D:\The.Blizzard.2O18.Pk.WEB-DL.72Op.mkv
Формат : Matroska
Версия формата : Version 2
Размер файла : 3,78 Гбайт
Продолжительность : 1 ч. 40 м.
Режим общего битрейта : Переменный
Общий поток : 5388 Кбит/сек
Дата кодирования : UTC 2018-10-15 08:35:40
Программа кодирования : mkvmerge v8.3.0 ('Over the Horizon') 64bit
Библиотека кодирования : libebml v1.3.1 + libmatroska v1.4.2

Видео
Идентификатор : 1
Формат : AVC
Формат/Информация : Advanced Video Codec
Профиль формата : High@L4.1
Параметр CABAC формата : Да
Параметр RefFrames формата : 4 кадра
Идентификатор кодека : V_MPEG4/ISO/AVC
Продолжительность : 1 ч. 40 м.
Вид битрейта : Переменный
Битрейт : 5002 Кбит/сек
Максимальный битрейт : 5500 Кбит/сек
Ширина : 1280 пикселей
Высота : 544 пикселя
Соотношение сторон : 2,35:1
Режим частоты кадров : Постоянный
Частота кадров : 23,976 (24000/1001) кадра/сек
Стандарт вещания : Component
Цветовое пространство : YUV
Субдискретизация насыщенности : 4:2:0
Битовая глубина : 8 бит
Тип развёртки : Прогрессивная
Бит/(Пиксели*Кадры) : 0.293
Размер потока : 3,44 Гбайт (91%)
Default : Да
Forced : Нет
Цветовой диапазон : Limited
Основные цвета : BT.709
Характеристики трансфера : BT.709
Коэффициенты матрицы : BT.709

Аудио
Идентификатор : 2
Формат : AC-3
Формат/Информация : Audio Coding 3
Расширение режима : CM (complete main)
Параметр Endianness формата : Big
Идентификатор кодека : A_AC3
Продолжительность : 1 ч. 40 м.
Вид битрейта : Постоянный
Битрейт : 384 Кбит/сек
Каналы : 2 канала
Расположение каналов : Front: L R
Частота : 48,0 КГц
Частота кадров : 31,250 кадров/сек (1536 spf)
Метод сжатия : С потерями
Размер потока : 276 Мбайт (7%)
Default : Да
Forced : Нет

pb.wtf



Скачать Пурга через торрент https://c.radikal.ru/c10/1810/be/71a2484ceb8b.jpg Скачать фильм Пурга через торрент бесплантно в хорошем качестве Описание: История двух друзей-выпускников полицейской академии и их отчисленного товарища Суна. Последнего внедряют в преступную ... 10 10 2
Торрент: Зарегистрирован [2018-10-23 17:49] · скачан: 23 раз
Статус: T временная
Размер: 3.78 GB
Как cкачать? Как скачать Пурга через торрент | qTorrent

% Раздел Тема Автор DL S | L
T Фильмы (мультфильмы) cо спонсором показа (Новинки AVI/MKV) [ 1.37 GB ] Пурга / The Blizzard / Dao gao yi zhang [2018 WEB-DLRip] MVO [КОЛОБОК] bober100 Скачать
1 | 0

28-11-2019 20:33  

Отключить всю рекламу на сайте

    Дорогой пользователь! Огромная просьба, поблагодарите релизера, оцените раздачу и оставьте свои комментарий, если Вы скачали Пурга через торрент бесплатно! Внесите свою лепту в развитие PiratBit!
    Комментировать посты могут только пользователи прошедшие не сложную регистрацию
    Показать сообщения:    

    Пурга через торрент
    Скачать бесплатно Пурга
    Пурга скачать торрент
    Пурга смотреть онлайн
    Cкачать фильм Пурга бесплатно
    Пурга скачать торрент в хорошем качестве
    Пурга смотреть онлайн бесплатно в хорошем качестве


    Вы не можете начинать темы
    Вы не можете отвечать на сообщения
    Вы не можете редактировать свои сообщения
    Вы не можете удалять свои сообщения
    Вы не можете голосовать в опросах
    Вы не можете прикреплять файлы к сообщениям
    Вы можете скачивать файлы