Ссылка на приватное зеркало всего за 1$. Внимание количество ограничено!!!

OK

1+1

iTunes

мы

OK

1

WEB-DLRip

Джокер

Пифагор

Ведьмак / The Witcher сериал

iTunes

ПШазам

ОК

Оно 2

iTunes

30
pack

Вам бонус

ВАЖНО

!!Акция!!

Alien_RageХит недели

RePack

Resident Evil 21

ИГРА 18+

pack

RePack

jed

RePack

fifa19

RePack

Assassins Creed: Odyssey

RePack

NEED FOR SPEED™ PAYBACK

4 сезон

9 сезон

Бесстыжие 9 сезон

Все сериалы

все сериалы на PB.wtf

RePack

FAR CRY 5
  

Марио / Mario (драма, мелодрама, спорт) [2018, драма, мелодрама, спорт, WEB-DL 720p] MVO ["Синема УС"] pb.wtf

Марио через торрент pb.wtf

Размер: 4.42 GB | Добавлен: 1 год 3 мес. назад | Торрент скачан:7 раз
Скачать  

23-10-2018 18:04 Марио Скачать торрент  

Марио / MarioГод выпуска: 2018
Страна: Швейцария
Жанр: драма, мелодрама, спорт
Продолжительность: 02:01:20
Перевод: Любительский (многоголосый) | "Синема УС"
Субтитры: отсутствуют

Режиссер: драма, мелодрама, спорт

rating

В ролях:

Макс Хубахер, Аарон Альтарас, Джесси Моравец, Йюрг Плюсс, Доро Мюглер, Андреас Матти, Йорис Гратволь, Щервин Амини, Фабрицио Борсани, Джулиан Кехлин

Описание:

Марио - лучший бомбардир в юношеской команде, после напряжённого сезона он мечтает стать профессиональным футболистом. Вместе с тем герой влюблён в первый раз в жизни - в Леона, новичка из Германии, хотя тот играет нападающим и является конкурентом Марио, когда дело касается перехода в команду высшего дивизиона. Вскоре в клубе начинают распространяться слухи. Карьера Марио под угрозой, но он так же сильно хочет любить и быть с Леоном.

Качество: WEB-DL 720p
Формат: MKV

Видео: h.264,4 828kb/s, 1280x692
Аудио#1: Русский, (AC3, 2 ch, 384 Кбит/с)
скриншот  скриншот  скриншот  

Общее
Уникальный идентификатор : 207053696985699318584604129766059500621 (0x9BC5176D55FFBE01A0843581F217644D)
Полное имя : D:\Mario.2O18.P.WEB-DL.72Op_KOSHARA.mkv
Формат : Matroska
Версия формата : Version 2
Размер файла : 4,42 Гбайт
Продолжительность : 2 ч. 1 м.
Режим общего битрейта : Переменный
Общий поток : 5214 Кбит/сек
Дата кодирования : UTC 2018-10-15 07:25:47
Программа кодирования : mkvmerge v8.3.0 ('Over the Horizon') 64bit
Библиотека кодирования : libebml v1.3.1 + libmatroska v1.4.2

Видео
Идентификатор : 1
Формат : AVC
Формат/Информация : Advanced Video Codec
Профиль формата : High@L4.1
Параметр CABAC формата : Да
Параметр RefFrames формата : 4 кадра
Идентификатор кодека : V_MPEG4/ISO/AVC
Продолжительность : 2 ч. 1 м.
Вид битрейта : Переменный
Битрейт : 4828 Кбит/сек
Максимальный битрейт : 5500 Кбит/сек
Ширина : 1280 пикселей
Высота : 692 пикселя
Соотношение сторон : 1,85:1
Режим частоты кадров : Постоянный
Частота кадров : 23,976 (24000/1001) кадра/сек
Стандарт вещания : Component
Цветовое пространство : YUV
Субдискретизация насыщенности : 4:2:0
Битовая глубина : 8 бит
Тип развёртки : Прогрессивная
Бит/(Пиксели*Кадры) : 0.223
Размер потока : 4,01 Гбайт (91%)
Default : Да
Forced : Нет
Цветовой диапазон : Limited
Основные цвета : BT.709
Характеристики трансфера : BT.709
Коэффициенты матрицы : BT.709

Аудио
Идентификатор : 2
Формат : AC-3
Формат/Информация : Audio Coding 3
Расширение режима : CM (complete main)
Параметр Endianness формата : Big
Идентификатор кодека : A_AC3
Продолжительность : 2 ч. 1 м.
Вид битрейта : Постоянный
Битрейт : 384 Кбит/сек
Каналы : 2 канала
Расположение каналов : Front: L R
Частота : 48,0 КГц
Частота кадров : 31,250 кадров/сек (1536 spf)
Метод сжатия : С потерями
Размер потока : 333 Мбайт (7%)
Default : Да
Forced : Нет

pb.wtf



Скачать Марио через торрент https://a.radikal.ru/a40/1810/1a/f8c2862268cf.jpg Скачать фильм Марио через торрент бесплантно в хорошем качестве Описание: Марио - лучший бомбардир в юношеской команде, после напряжённого сезона он мечтает стать профессиональным футболистом. Вместе с ... 3.3 10 8
Торрент: Зарегистрирован [2018-10-23 18:04] · скачан: 7 раз
Статус: T временная
Размер: 4.42 GB
Как cкачать? Как скачать Марио через торрент | qTorrent

% Раздел Тема Автор DL S | L
T Фильмы 2019-2020 [DVDrip, WEB-DLRip, HDrip] (DUB, MVO) [ 2.06 GB ] Безжалостный / Lo spietato [2019 WEB-DLRip] [MVO] killermax2013 Скачать
2 | 0
Фильмы (WEB-DL 720p, 1080p) [ 3.62 GB ] Безжалостный / Lo spietato [2019 WEB-DL 1080p] [MVO] killermax2013 Скачать
4 | 0
Фильмы 2018 [DVDrip, WEB-DLRip, HDrip] (DUB, MVO) [ 2.08 GB ] Мара. Пожиратель снов / Mara [2018 BDRip-AVC] MVO [HDRezka Studio] + bober100 Скачать
2 | 0
Документальные фильмы и телепередачи [ 2.42 GB ] Штефан Великий Штефан чел Маре ши Сфынт Стефан III Великий / Ștefan cel Mare și Sfânt [2018 Документальныйистория IPTV] Armstrong Скачать
1 | 0
Фильмы 2018 [DVDrip, WEB-DLRip, HDrip] (DUB, MVO) [ 1.42 GB ] Мара. Пожиратель снов / Mara [2018 BDRip] - Twi7ter Скачать
1 | 0
Фильмы [HD 720p, 1080p] (Хороший звук DUB, MVO) [ 4.46 GB ] Мара. Пожиратель снов / Mara [2018 BDRip 720p] bober100 Скачать
2 | 0
Фильмы [HD 720p, 1080p] (Хороший звук DUB, MVO) [ 8 GB ] Мара. Пожиратель снов / Mara [2018 BDRip 1080p] bober100 Скачать
1 | 0

28-11-2019 20:33  

Отключить всю рекламу на сайте

23-10-2018 18:07 Марио Скачать торрент  

pb.wtf



23-10-2018 18:15 Марио Скачать торрент  

мда уж. внедряют гомосятину везде. pb.wtf



23-10-2018 23:37 Марио Скачать торрент  

Я то думал это про Марио который из игры , а тут оказывается про немецких трубочистов кинцо !pb.wtf



24-10-2018 07:40 Марио Скачать торрент  

приехалиpb.wtf



24-10-2018 07:47 Марио Скачать торрент  

Зачем это говно в России?????pb.wtf



    Дорогой пользователь! Огромная просьба, поблагодарите релизера, оцените раздачу и оставьте свои комментарий, если Вы скачали Марио через торрент бесплатно! Внесите свою лепту в развитие PiratBit!
    Комментировать посты могут только пользователи прошедшие не сложную регистрацию
    Показать сообщения:    

    Марио через торрент
    Скачать бесплатно Марио
    Марио скачать торрент
    Марио смотреть онлайн
    Cкачать фильм Марио бесплатно
    Марио скачать торрент в хорошем качестве
    Марио смотреть онлайн бесплатно в хорошем качестве


    Вы не можете начинать темы
    Вы не можете отвечать на сообщения
    Вы не можете редактировать свои сообщения
    Вы не можете удалять свои сообщения
    Вы не можете голосовать в опросах
    Вы не можете прикреплять файлы к сообщениям
    Вы можете скачивать файлы