Ссылка на приватное зеркало нашего сайта всего за 1$. Внимание количество ограничено!!!

2 сезон

iTunes

1 сезон

1

iTunes

iTunes

iTunes

1 сезон

RePack

30

ИГРА 18+

pack

ВАЖНО

!!Акция!!

Alien_RageХит недели

RePack

MK11
pack

Забери бонус

RePack

jed

!!Акция!!

Alien_Rage

RePack

fifa19

RePack

Assassins Creed: Odyssey

RePack

NEED FOR SPEED™ PAYBACK

4 сезон

9 сезон

Бесстыжие 9 сезон

Все сериалы

все сериалы на PB.wtf

RePack

FAR CRY 5
  

В поисках йети / Mission Kathmandu: The Adventures of Nelly & Simon (Пьер Греко, Нэнси Севард) [2017 г., мультфильм, комедия, приключения, WEB-DLRip, Дубляж "iTunes"] pb.wtf

В поисках йети через торрент pb.wtf

Размер: 709 MB | Добавлен: 2 года назад | Торрент скачан:27 раз
Скачать  

23-10-2018 18:23 В поисках йети Скачать торрент  

В поисках йети / Mission Kathmandu: The Adventures of Nelly & Simon
Год выпуска: 2017
Страна: Канада / Productions 10th Ave
Жанр: мультфильм, комедия, приключения
Продолжительность: 01:24:10
Перевод: Дубляж (iTunes)

Режиссер: Пьер Греко, Нэнси Севард

rating

В ролях: Сильви Моро, Гийом Леме-Тивьерж, Рашид Бадури, Александрина Уоррен, Stephane Crete, Эдгар Фруатье, Себастьен Бенуа, Бертран Ален, Simon-Pierre Gariépy, Мартин Бойли

Описание: Увлекательные приключения частного детектива Нелли и ботаника-ученого Саймона, которые искренне верят в существование снежного человека Йети.

Чтобы доказать, что мифический зверь существует, исследователям придется отправиться в самое сердце Гималаев и найти его!

Качество: WEB-DLRip
Формат: AVI
Видео кодек: XviD
Аудио кодек: MP3
Видео: 640x344 (1.86:1), 23.976 fps, XviD build 50 ~1040 kbps avg, 0.20 bit/pixel
Аудио: 48 kHz, MPEG Layer 3, 2 ch, ~128.00 kbps avg
скриншот   скриншот   скриншот   скриншот   скриншот   скриншот   скриншот   скриншот  

Общее
Полное имя : F:\ФИЛЬМЫ\В поисках йети.2017.D.WEB-DLRip.avi
Формат : AVI
Формат/Информация : Audio Video Interleave
Размер файла : 709 Мбайт
Продолжительность : 1 ч. 24 м.
Общий поток : 1178 Кбит/сек
Программа кодирования : VirtualDubMod 1.5.10.3 | www.virtualdub-fr.org || (build 2550/release)
Библиотека кодирования : VirtualDubMod build 2550/release

Видео
Идентификатор : 0
Формат : MPEG-4 Visual
Профиль формата : Advanced Simple@L5
Настройки формата : BVOP2
Параметр BVOP формата : 2
Параметр QPel формата : Нет
Параметр GMC формата : Без точки перехода
Параметр матрицы формата : Default (MPEG)
Идентификатор кодека : XVID
Идентификатор кодека/Подсказка : XviD
Продолжительность : 1 ч. 24 м.
Битрейт : 1041 Кбит/сек
Ширина : 640 пикселей
Высота : 344 пикселя
Соотношение сторон : 1,85:1
Частота кадров : 23,976 (24000/1001) кадра/сек
Цветовое пространство : YUV
Субдискретизация насыщенности : 4:2:0
Битовая глубина : 8 бит
Тип развёртки : Прогрессивная
Метод сжатия : С потерями
Бит/(Пиксели*Кадры) : 0.197
Размер потока : 627 Мбайт (88%)
Библиотека кодирования : XviD 1.2.1 (UTC 2008-12-04)

Аудио
Идентификатор : 1
Формат : MPEG Audio
Версия формата : Version 1
Профиль формата : Layer 3
Настройки формата : Joint stereo / MS Stereo
Идентификатор кодека : 55
Идентификатор кодека/Подсказка : MP3
Продолжительность : 1 ч. 24 м.
Вид битрейта : Постоянный
Битрейт : 128 Кбит/сек
Каналы : 2 канала
Частота : 48,0 КГц
Частота кадров : 41,667 кадра/сек (1152 SPF)
Метод сжатия : С потерями
Размер потока : 77,1 Мбайт (11%)
Выравнивание : Соединение по промежуткам
Продолжительность промежутка : 42 мс. (1,00 видеокадр)
Время предзагрузки промежутка : 504 мс.
Библиотека кодирования : LAME3.99r
Настройки программы : -m j -V 4 -q 2 -lowpass 17 -b 128

pb.wtf



Скачать В поисках йети через торрент http://pic1.kartinco.top/images/11/gcvmk.jpg Скачать фильм В поисках йети через торрент бесплантно в хорошем качестве Описание: Увлекательные приключения частного детектива Нелли и ботаника-ученого Саймона, которые искренне верят в существование снежного ... 10 10 1
Торрент: Зарегистрирован [2018-10-23 18:23] · скачан: 27 раз
Статус: √ проверено
Размер: 709 MB
Как cкачать? Как скачать В поисках йети через торрент | qTorrent

28-11-2019 20:33  

Отключить всю рекламу на сайте

    Дорогой пользователь! Огромная просьба, поблагодарите релизера, оцените раздачу и оставьте свои комментарий, если Вы скачали В поисках йети через торрент бесплатно! Внесите свою лепту в развитие PiratBit!
    Комментировать посты могут только пользователи прошедшие не сложную регистрацию
    Показать сообщения:    

    В поисках йети через торрент
    Скачать бесплатно В поисках йети
    В поисках йети скачать торрент
    В поисках йети смотреть онлайн
    Cкачать фильм В поисках йети бесплатно
    В поисках йети скачать торрент в хорошем качестве
    В поисках йети смотреть онлайн бесплатно в хорошем качестве


    Вы не можете начинать темы
    Вы не можете отвечать на сообщения
    Вы не можете редактировать свои сообщения
    Вы не можете удалять свои сообщения
    Вы не можете голосовать в опросах
    Вы не можете прикреплять файлы к сообщениям
    Вы можете скачивать файлы