Ссылка на приватное зеркало всего за 1$. Внимание количество ограничено!!!

OK

1+1

iTunes

мы

OK

1

WEB-DLRip

Джокер

Пифагор

Ведьмак / The Witcher сериал

iTunes

ПШазам

ОК

Оно 2

iTunes

30
pack

Вам бонус

ВАЖНО

!!Акция!!

Alien_RageХит недели

RePack

Resident Evil 21

ИГРА 18+

pack

RePack

jed

RePack

fifa19

RePack

Assassins Creed: Odyssey

RePack

NEED FOR SPEED™ PAYBACK

4 сезон

9 сезон

Бесстыжие 9 сезон

Все сериалы

все сериалы на PB.wtf

RePack

FAR CRY 5
  

Энн из Зелёных Крыш: Хорошие звёзды / L.M. Montgomery's Anne of Green Gables: The Good (Джон Кент Харрисон) [2017, семейный, WEB-DL 720p] MVO ["Синема УС"] pb.wtf

Энн из Зелёных Крыш: Хорошие звёзды через торрент pb.wtf

Размер: 3.05 GB | Добавлен: 1 год 3 мес. назад | Торрент скачан:13 раз
Скачать  

23-10-2018 19:30 Энн из Зелёных Крыш: Хорошие звёзды Скачать торрент  

Энн из Зелёных Крыш: Хорошие звёзды / L.M. Montgomery's Anne of Green Gables: The Good Год выпуска: 2017
Страна: Канада
Жанр: семейный
Продолжительность: 01:30:51
Перевод: Любительский (многоголосый) | "Синема УС"
Субтитры: отсутствуют

Режиссер: Джон Кент Харрисон

rating

В ролях:

Элла Бэллентайн, Сара Ботсфорд, Мартин Шин, Джулия Лалонд, Дрю Хайтаоглу, Зои Фрайзер, Амария Фолкнер, Стефани Кимбер, Авив Коэн, Николай Макаллистер

Описание:

Энергичная Энн Ширли проходит через очередной этап взросления, включающий первые ночевки, кулинарные приключения и отношения. Все то, что постоянно захватывает ее любознательную натуру.

Качество: WEB-DL 720p
Формат: MKV

Видео: h.264,4 427 kb/s, 1280x720
Аудио#1: Русский, (AC3, 2 ch, 384 Кбит/с)
скриншот  скриншот  скриншот  

Общее
Уникальный идентификатор : 201414034918679020010501075200276191453 (0x9786EE9E9009D1428742FF3DCBA058DD)
Полное имя : D:\Anne.of.Green.Gables.The.Good.Stars.2O17.P.WEB-DL.72Op_KOSHARA.mkv
Формат : Matroska
Версия формата : Version 2
Размер файла : 3,05 Гбайт
Продолжительность : 1 ч. 30 м.
Режим общего битрейта : Переменный
Общий поток : 4813 Кбит/сек
Дата кодирования : UTC 2018-10-23 15:57:56
Программа кодирования : mkvmerge v8.3.0 ('Over the Horizon') 64bit
Библиотека кодирования : libebml v1.3.1 + libmatroska v1.4.2

Видео
Идентификатор : 1
Формат : AVC
Формат/Информация : Advanced Video Codec
Профиль формата : High@L4.1
Параметр CABAC формата : Да
Параметр RefFrames формата : 4 кадра
Идентификатор кодека : V_MPEG4/ISO/AVC
Продолжительность : 1 ч. 30 м.
Вид битрейта : Переменный
Битрейт : 4427 Кбит/сек
Максимальный битрейт : 5000 Кбит/сек
Ширина : 1280 пикселей
Высота : 720 пикселей
Соотношение сторон : 16:9
Режим частоты кадров : Постоянный
Частота кадров : 23,976 (24000/1001) кадра/сек
Стандарт вещания : Component
Цветовое пространство : YUV
Субдискретизация насыщенности : 4:2:0
Битовая глубина : 8 бит
Тип развёртки : Прогрессивная
Бит/(Пиксели*Кадры) : 0.196
Размер потока : 2,75 Гбайт (90%)
Default : Да
Forced : Нет
Цветовой диапазон : Limited
Основные цвета : BT.709
Характеристики трансфера : BT.709
Коэффициенты матрицы : BT.709

Аудио
Идентификатор : 2
Формат : AC-3
Формат/Информация : Audio Coding 3
Расширение режима : CM (complete main)
Параметр Endianness формата : Big
Идентификатор кодека : A_AC3
Продолжительность : 1 ч. 30 м.
Вид битрейта : Постоянный
Битрейт : 384 Кбит/сек
Каналы : 2 канала
Расположение каналов : Front: L R
Частота : 48,0 КГц
Частота кадров : 31,250 кадров/сек (1536 spf)
Метод сжатия : С потерями
Размер потока : 250 Мбайт (8%)
Default : Да
Forced : Нет

pb.wtf



Скачать Энн из Зелёных Крыш: Хорошие звёзды через торрент https://a.radikal.ru/a06/1810/51/140cce209c85.jpg Скачать фильм Энн из Зелёных Крыш: Хорошие звёзды через торрент бесплантно в хорошем качестве Описание: Энергичная Энн Ширли проходит через очередной этап взросления, включающий первые ночевки, кулинарные приключения и отношения. Все ... 10 10 2
Торрент: Зарегистрирован [2018-10-23 19:30] · скачан: 13 раз
Статус: T временная
Размер: 3.05 GB
Как cкачать? Как скачать Энн из Зелёных Крыш: Хорошие звёзды через торрент | qTorrent

28-11-2019 20:33  

Отключить всю рекламу на сайте

    Дорогой пользователь! Огромная просьба, поблагодарите релизера, оцените раздачу и оставьте свои комментарий, если Вы скачали Энн из Зелёных Крыш: Хорошие звёзды через торрент бесплатно! Внесите свою лепту в развитие PiratBit!
    Комментировать посты могут только пользователи прошедшие не сложную регистрацию
    Показать сообщения:    

    Энн из Зелёных Крыш: Хорошие звёзды через торрент
    Скачать бесплатно Энн из Зелёных Крыш: Хорошие звёзды
    Энн из Зелёных Крыш: Хорошие звёзды скачать торрент
    Энн из Зелёных Крыш: Хорошие звёзды смотреть онлайн
    Cкачать фильм Энн из Зелёных Крыш: Хорошие звёзды бесплатно
    Энн из Зелёных Крыш: Хорошие звёзды скачать торрент в хорошем качестве
    Энн из Зелёных Крыш: Хорошие звёзды смотреть онлайн бесплатно в хорошем качестве


    Вы не можете начинать темы
    Вы не можете отвечать на сообщения
    Вы не можете редактировать свои сообщения
    Вы не можете удалять свои сообщения
    Вы не можете голосовать в опросах
    Вы не можете прикреплять файлы к сообщениям
    Вы можете скачивать файлы