Ссылка на приватное зеркало нашего сайта всего за 1$. Внимание количество ограничено!!!

2 сезон

iTunes

1 сезон

1

iTunes

iTunes

iTunes

1 сезон

RePack

30

ИГРА 18+

pack

ВАЖНО

!!Акция!!

Alien_RageХит недели

RePack

MK11
pack

Забери бонус

RePack

jed

!!Акция!!

Alien_Rage

RePack

fifa19

RePack

Assassins Creed: Odyssey

RePack

NEED FOR SPEED™ PAYBACK

4 сезон

9 сезон

Бесстыжие 9 сезон

Все сериалы

все сериалы на PB.wtf

RePack

FAR CRY 5
  

Время / Сезон: 1 / Серии: 1-12 из 12 (Дмитрий Кырыкбаев) [2018, Криминал, драма, SATRip] pb.wtf

Время через торрент pb.wtf

Размер: 5.28 GB | Добавлен: 2 года назад | Торрент скачан:55 раз
Скачать  

23-10-2018 21:16 Время Скачать торрент  

ВремяГод выпуска: 2018
Страна: Казахстан
Жанр: Криминал, драма
Продолжительность: ~ 00:45:00 серия
Перевод: Не требуется
Субтитры: Казахские [вшитые]

Режиссер: Дмитрий Кырыкбаев

В ролях:

Ринат Маделин, Жан Байжанбаев, Азиз Бейшеналиев, Нуржан Садыбеков, Нуржан Ауезхан, Владимир Кащенко

Описание:

В центре сюжета оказываются четверо мужчин, которых объединяет поставленный им смертельный диагноз. В минуты отчаяния собратья по несчастью знакомятся с влиятельным бизнесменом, предлагающим им крупную сумму денег за не вполне законное дело. Терять героям нечего, и они соглашаются, не подозревая, что с этой минуты обстоятельства и время будут играть против них.

Качество: SATRip
Формат: AVI

Видео: XviD, 1117 Кбит/с, 720x408
Аудио: MP3, 2 ch, 192 Кбит/с
скриншот   скриншот   скриншот   скриншот   скриншот  

Общее
Полное имя : D:\Vremja.(12.serij.iz.12).2018.SATRip\Vremja.01.avi
Формат : AVI
Формат/Информация : Audio Video Interleave
Размер файла : 444 Мбайт
Продолжительность : 47 м. 12 с.
Общий поток : 1315 Кбит/сек
Программа кодирования : Lavf56.36.100

Видео
Идентификатор : 0
Формат : xvid
Идентификатор кодека : xvid
Продолжительность : 47 м. 12 с.
Битрейт : 1110 Кбит/сек
Ширина : 720 пикселей
Высота : 408 пикселей
Соотношение сторон : 16:9
Частота кадров : 25,000 кадров/сек
Тип развёртки : Прогрессивная
Бит/(Пиксели*Кадры) : 0.151
Размер потока : 375 Мбайт (84%)

Аудио
Идентификатор : 1
Формат : MPEG Audio
Версия формата : Version 1
Профиль формата : Layer 3
Режим : Joint stereo
Расширение режима : MS Stereo
Идентификатор кодека : 55
Идентификатор кодека/Подсказка : MP3
Продолжительность : 47 м. 12 с.
Вид битрейта : Постоянный
Битрейт : 192 Кбит/сек
Каналы : 2 канала
Частота : 44,1 КГц
Метод сжатия : С потерями
Размер потока : 64,8 Мбайт (15%)
Выравнивание : Соединение по промежуткам
Продолжительность промежутка : 26 мс. (0,65 видеокадр)
Время предзагрузки промежутка : 26 мс.
Библиотека кодирования : LAME3.99.5

pb.wtf



Скачать Время через торрент http://i92.fastpic.ru/big/2018/1021/86/0aef79c898e3fa446aa3811860efb786.jpg Скачать фильм Время через торрент бесплантно в хорошем качестве Описание: В центре сюжета оказываются четверо мужчин, которых объединяет поставленный им смертельный диагноз. В минуты отчаяния собратья по ... 9.8 10 5
Торрент: Зарегистрирован [2018-10-23 21:16] · скачан: 55 раз
Статус: √ проверено
Размер: 5.28 GB
Как cкачать? Как скачать Время через торрент | qTorrent

% Раздел Тема Автор DL S | L
Наши сериалы [ 6.37 GB ] Время / Сезон: 1 / Серии: 1-12 из 12 [2018 WEBRip-AVC] bober100 Скачать
1 | 0

28-11-2019 20:33  

Отключить всю рекламу на сайте

    Дорогой пользователь! Огромная просьба, поблагодарите релизера, оцените раздачу и оставьте свои комментарий, если Вы скачали Время через торрент бесплатно! Внесите свою лепту в развитие PiratBit!
    Комментировать посты могут только пользователи прошедшие не сложную регистрацию
    Показать сообщения:    

    Время через торрент
    Скачать бесплатно Время
    Время скачать торрент
    Время смотреть онлайн
    Cкачать фильм Время бесплатно
    Время скачать торрент в хорошем качестве
    Время смотреть онлайн бесплатно в хорошем качестве


    Вы не можете начинать темы
    Вы не можете отвечать на сообщения
    Вы не можете редактировать свои сообщения
    Вы не можете удалять свои сообщения
    Вы не можете голосовать в опросах
    Вы не можете прикреплять файлы к сообщениям
    Вы можете скачивать файлы