новый адрес пиратбит piratbit
Мега распродажа FORZA HORIZON 4 ULTIMATE+ВСЕ DLC+ОНЛАЙН всего за 499р. 349 руб. (супер цена). Внимание количество ограничено!!!

iTunes

1+1

iTunes

мы

iTunes

1

iTunes

Чернобыль

iTunes

Ральф против интернета

Лицензия

ПШазам

Лицензия

Игра престолов

Лицензия

30
pack

ВАЖНО

!!Акция!!

Alien_RageХит недели

RePack

Resident Evil 21

ИГРА 18+

pack

RePack

Metro:Exodus

!!Акция!!

Alien_Rage

RePack

fifa19

RePack

Assassins Creed: Odyssey

RePack

NEED FOR SPEED™ PAYBACK

3 сезон

9 сезон

Бесстыжие 9 сезон

Все сериалы

все сериалы на PB.wtf

RePack

FAR CRY 5
Ребята, катастрофически не хватает 1900р. для оплаты серверов за Октябрь (всвязи с блокировками трафик упал в 3 раза), 1-2р., выручайте.
  

История одного назначения (Авдотья Смирнова) [2018, драма, WEB-DLRip] [iTunes] pb.wtf

История одного назначения через торрент pb.wtf

Размер: 746 MB | Добавлен: 1 год назад | Торрент скачан:231 раз
Скачать  

24-10-2018 01:31 История одного назначения Скачать торрент  

История одного назначения
Год выпуска: 2018
Страна: Россия
Жанр: драма
Продолжительность: 01:48:51
Перевод: Не требуется | iTunes
Субтитры: отсутствуют

Режиссер: Авдотья Смирнова

rating

В ролях:

Алексей Смирнов, Евгений Харитонов, Филипп Гуревич, Ирина Горбачева, Елизавета Янковская, Игорь Золотовицкий, Анна Михалкова, Сергей Уманов, Анна Пармас, Андрей Смирнов

Описание:

В пехотном полку в Тульской области, куда отправляется на службу вдохновленный передовыми идеями столичный поручик Григорий Колокольцев, происходит преступление. Солдату, на плечи которого ложится вина, грозит военный трибунал и расстрел. Колокольцев обращается за помощью к графу Толстому, который решает защитить невиновного.

Качество: WEB-DLRip
Формат: AVI

Видео: XviD build 73, 688x288 (2.40:1), 25.000 fps, 757 Kbps (0.153 bit/pixel)
Аудио: 48.0 kHz, AC3, 2/0 ch, 192 kbps | iTunes
скриншот  скриншот  скриншот  скриншот  

General
Complete name : D:RazdachiIstorija.Odnogo.Naznachenija.2018.XviD.WEB-DLRip.GeneralFilm.avi
Format : AVI
Format/Info : Audio Video Interleave
File size : 746 MiB
Duration : 1 h 48 min
Overall bit rate : 958 kb/s
Writing application : VirtualDubMod 1.5.10.3 | www.virtualdub-fr.org || (build 2550/release)
Writing library : VirtualDubMod build 2550/release

Video
ID : 0
Format : MPEG-4 Visual
Format profile : Advanced Simple@L5
Format settings, BVOP : 1
Format settings, QPel : No
Format settings, GMC : No warppoints
Format settings, Matrix : Custom
Codec ID : XVID
Codec ID/Hint : XviD
Duration : 1 h 48 min
Bit rate : 757 kb/s
Width : 688 pixels
Height : 288 pixels
Display aspect ratio : 2.40:1
Frame rate : 25.000 FPS
Color space : YUV
Chroma subsampling : 4:2:0
Bit depth : 8 bits
Scan type : Progressive
Compression mode : Lossy
Bits/(Pixel*Frame) : 0.153
Stream size : 589 MiB (79%)
Writing library : XviD 73

Audio
ID : 1
Format : AC-3
Format/Info : Audio Coding 3
Format settings, Endianness : Big
Codec ID : 2000
Duration : 1 h 48 min
Bit rate mode : Constant
Bit rate : 192 kb/s
Channel(s) : 2 channels
Channel positions : Front: L R
Sampling rate : 48.0 kHz
Frame rate : 31.250 FPS (1536 SPF)
Bit depth : 16 bits
Compression mode : Lossy
Stream size : 149 MiB (20%)
Alignment : Split accross interleaves
Interleave, duration : 40 ms (1.00 video frame)
Interleave, preload duratio : 500 ms
Service kind : Complete Main
pb.wtf



Скачать История одного назначения через торрент http://i95.fastpic.ru/big/2018/1023/23/55cd2fd5bb2ba6a437d7d4478a027523.jpg Скачать фильм История одного назначения через торрент бесплантно в хорошем качестве Описание: В пехотном полку в Тульской области, куда отправляется на службу вдохновленный передовыми идеями столичный поручик Григорий ... 9.8 10 8
Info! Золотая раздача, скачанное не засчитывается.
Торрент: Зарегистрирован [2018-10-24 01:31] · скачан: 231 раз
Статус: √ проверено
Размер: 746 MB
Как cкачать? Как скачать История одного назначения через торрент | qTorrent

% Раздел Тема Автор DL S | L
Наши фильмы (HD, WEB-DL 720p, 1080p) [ 3.42 GB ] История одного назначения [2018 WEB-DL 720p] bober100 Скачать
1 | 0
Наши новые фильмы 2018-2019 [ 1.46 GB ] История одного назначения [2018 WEB-DLRip] bober100 Скачать
6 | 0
Наши фильмы (HD, WEB-DL 720p, 1080p) [ 3.76 GB ] История одного назначения [2018 WEB-DL 1080p] bober100 Скачать
3 | 0


>> Регистрируемся здесь <<






Отзывы и комментарии о схеме читаем и пишем здесь: ---> Отзывы и комментарии о схеме

Новые благодарочки в телеграм довольных пользователей:
скриншот   скриншот   скриншот   скриншот   скриншот

25-10-2018 06:02 История одного назначения Скачать торрент  

По книге тот которого расстреляли был мудаком . А по фильму жертвой . Толстой по фильму какой-то жеманистый мудак у которого в доме хрен знает что происходит . Все перетрахались и перетравились . Либеральное дерьмо . Расчёт походу на то , что в европе оценят и дадут приз типа "золотое яйцо пеликана" . В конце убило вообще : выражаем благодарность абрамовичу . Походу за то что денег дал на то , что бы русский народ говном измазали снова .pb.wtf



30-11-2018 13:26 История одного назначения Скачать торрент  

Нормальные фильмы когда нибудь будут снимать. Одно дерьмо.И снимают кинокомедии .Весело.Ну и страна ...................pb.wtf



    Дорогой пользователь! Огромная просьба, поблагодарите релизера, оцените раздачу и оставьте свои комментарий, если Вы скачали История одного назначения через торрент бесплатно! Внесите свою лепту в развитие PiratBit!
    Комментировать посты могут только пользователи прошедшие не сложную регистрацию
    Показать сообщения:    

    История одного назначения через торрент
    Скачать бесплатно История одного назначения
    История одного назначения скачать торрент
    История одного назначения смотреть онлайн
    Cкачать фильм История одного назначения бесплатно
    История одного назначения скачать торрент в хорошем качестве
    История одного назначения смотреть онлайн бесплатно в хорошем качестве


    Вы не можете начинать темы
    Вы не можете отвечать на сообщения
    Вы не можете редактировать свои сообщения
    Вы не можете удалять свои сообщения
    Вы не можете голосовать в опросах
    Вы не можете прикреплять файлы к сообщениям
    Вы можете скачивать файлы