Ссылка на приватное зеркало нашего сайта всего за 1$. Внимание количество ограничено!!!

2 сезон

iTunes

1 сезон

1

2 сезон

2 сезон

iTunes

1 сезон

RePack

30

Ultimate

ВАЖНО

ИГРА 18+

pack

RePack

MK11
pack

Забери бонус

RePack

jed

!!Акция!!

Alien_Rage

RePack

fifa19

RePack

Assassins Creed: Odyssey

RePack

NEED FOR SPEED™ PAYBACK

4 сезон

9 сезон

Бесстыжие 9 сезон

Все сериалы

все сериалы на PB.wtf

RePack

FAR CRY 5
  

Сорвиголова / Daredevil / Сезон: 3 / Серии: 1-13 из 13 (Фил Абрахам, Стивен С. ДеНайт, Кен Джиротти) [2018, Фантастика, боевик, WEBRip] MVO [LostFilm] pb.wtf

Сорвиголова через торрент pb.wtf

Размер: 8.54 GB | Добавлен: 1 год 11 мес. назад | Торрент скачан:97 раз
Скачать  

24-10-2018 13:38 Сорвиголова Скачать торрент  

Сорвиголова / Daredevil Год выпуска: 2018
Страна: США
Жанр: Фантастика, боевик
Продолжительность: ~ 00:54:00
Перевод: Профессиональный (многоголосый) |
Субтитры: Russian, English (внешние, .srt)

Режиссер: Фил Абрахам, Стивен С. ДеНайт, Кен Джиротти

rating

В ролях:

Чарли Кокс, Дебора Энн Уолл, Элден Хенсон, Розарио Доусон, Винсент Д`Онофрио, Айелет Зурер, Боб Гантон, Тоби Мур, Вонди Куртис-Холл, Роб Морган

Описание:

Мэтт Мердок отличный специалист, но в результате несчастного случае он потерял зрение еще в юном возрасте. Как известно, люди, потерявшие какой-либо орган чувств, усиливают все остальные рефлексы в несколько раз. Именно поэтому, лишенный зрения Мэрдок отлично чувствует и слышит все происходящее вокруг. Он решает посвятить свою жизнь борьбе с преступностью. Теперь он с утра и до вечера - успешный адвокат, а ночью превращается в неуловимого мстителя в маске по прозвищу Сорвиголова! Ночной город может спасть спокойно, когда на улицах города вершит правосудие этот человек, способный остановить любого злодея!

Качество: WEBRip | Чистый видеоряд
Формат: AVI

Видео: 720x400 at 23.976 fps, XviD, ~2000 kbps avg
Аудио#1: Russian: 48 kHz, AC3, 3/2 (L,C,R,l,r) + LFE ch, ~384 kbps avg |Многоголосый закадровый, LostFilm|
Аудио#2: English: 48 kHz, AC3, 3/2 (L,C,R,l,r) + LFE ch, ~384 kbps avg
скриншот  скриншот  скриншот  скриншот  

Общее
Полное имя : E:\_Сериалы\_Сериалы\Сорвиголова\Daredevil.S03.WEB-DLRip.Rus.Eng.CasStudio\Marvels.Daredevil.S03E01.WEB-DLRip.Rus.Eng.CasStudio.avi
Формат : AVI
Формат/Информация : Audio Video Interleave
Размер файла : 1,04 Гбайт
Продолжительность : 53 м. 23 с.
Общий поток : 2775 Кбит/сек
Программа кодирования : VirtualDubMod 1.5.10.3 | www.virtualdub-fr.org || (build 2550/release)
Библиотека кодирования : VirtualDubMod build 2550/release

Видео
Идентификатор : 0
Формат : MPEG-4 Visual
Профиль формата : Advanced Simple@L5
Настройки формата : BVOP1
Параметр BVOP формата : 1
Параметр QPel формата : Нет
Параметр GMC формата : Без точки перехода
Параметр матрицы формата : Default (MPEG)
Идентификатор кодека : XVID
Идентификатор кодека/Подсказка : XviD
Продолжительность : 53 м. 23 с.
Битрейт : 1993 Кбит/сек
Ширина : 720 пикселей
Высота : 400 пикселей
Соотношение сторон : 16:9
Частота кадров : 23,976 (24000/1001) кадра/сек
Цветовое пространство : YUV
Субдискретизация насыщенности : 4:2:0
Битовая глубина : 8 бит
Тип развёртки : Прогрессивная
Метод сжатия : С потерями
Бит/(Пиксели*Кадры) : 0.289
Размер потока : 761 Мбайт (72%)
Библиотека кодирования : XviD 1.2.1 (UTC 2008-12-04)

Аудио #1
Идентификатор : 1
Формат : AC-3
Формат/Информация : Audio Coding 3
Идентификатор кодека : 2000
Продолжительность : 53 м. 23 с.
Вид битрейта : Постоянный
Битрейт : 384 Кбит/сек
Каналы : 6 каналов
Расположение каналов : Front: L C R, Side: L R, LFE
Частота : 48,0 КГц
Частота кадров : 31,250 кадров/сек (1536 SPF)
Битовая глубина : 16 бит
Метод сжатия : С потерями
Размер потока : 147 Мбайт (14%)
Выравнивание : Разделение по промежуткам
Продолжительность промежутка : 42 мс. (1,00 видеокадр)
Время предзагрузки промежутка : 500 мс.
ServiceKind/String : Complete Main

Аудио #2
Идентификатор : 2
Формат : AC-3
Формат/Информация : Audio Coding 3
Идентификатор кодека : 2000
Продолжительность : 53 м. 23 с.
Вид битрейта : Постоянный
Битрейт : 384 Кбит/сек
Каналы : 6 каналов
Расположение каналов : Front: L C R, Side: L R, LFE
Частота : 48,0 КГц
Частота кадров : 31,250 кадров/сек (1536 SPF)
Битовая глубина : 16 бит
Метод сжатия : С потерями
Размер потока : 147 Мбайт (14%)
Выравнивание : Разделение по промежуткам
Продолжительность промежутка : 42 мс. (1,00 видеокадр)
Время предзагрузки промежутка : 500 мс.
ServiceKind/String : Complete Main

Когда раздача ведётся путём добавления новых серий, при каждом добавлении создётся новый торрент. Чтобы начать докачку новой серии, пользователям необходимо сделать следующее:
(1) остановить скачивание,
(2) удалить старый торрент у себя из клиента (старые серии удалять не надо),
(3) скачать новый торрент и запустить его у себя в клиенте вместо старого, при этом указать клиенту путь в старую папку, куда и должно происходить скачивание новых серий.
Ваш клиент при этом должен произвести хеширование (проверку) старой папки (если не производит сам - помогите ему сделать это), и будет докачивать только те серии, которых у вас ещё нет. Старые серии при этом не удаляются, а продолжают раздаваться!
Eсли вы уже удалили старые серии, то предотвратить повторную закачку старых серий можно, отжав галочку в соответсвующих местах при запуске нового торрента. По возможности, желательно не удалять старые серии как можно дольше, чтобы релизёр не столько продолжал раздавать старые серии, а смог сконцентрироваться на новых.
pb.wtf



Скачать Сорвиголова через торрент https://a.radikal.ru/a10/1810/44/d87fa8d15e01.jpg Скачать фильм Сорвиголова через торрент бесплантно в хорошем качестве Описание: Мэтт Мердок отличный специалист, но в результате несчастного случае он потерял зрение еще в юном возрасте. Как известно, люди, ... 10 10 5
Торрент: Зарегистрирован [2018-12-01 13:38] · скачан: 97 раз
Статус: √ проверено
Размер: 8.54 GB
Как cкачать? Как скачать Сорвиголова через торрент | qTorrent

% Раздел Тема Автор DL S | L
Зарубежные сериалы [ 108.37 GB ] Сорвиголова / Daredevil / Сезон: 3 / Серии: 1-13 из 13 [2018 UHD WEBRip-HEVC 2160p ] 3xMVO [LostFilm BaibaKo NewStudio] bober100 Скачать
1 | 0
Зарубежные сериалы [ 151.68 GB ] Сорвиголова / Daredevil / Сезон: 3 / Серии: 1-13 из 13 [2018 UHD WEBRip 2160p] 2xMVO [LostFilm BaibaKo] bober100 Скачать
1 | 0
Зарубежные сериалы [ 8.48 GB ] Сорвиголова / Daredevil / Сезон: 3 / Серии: 1-13 из 13 [2018 WEBRip] MVO [NewStudio] bober100 Скачать
1 | 0
Зарубежные сериалы [ 23.11 GB ] Сорвиголова / Daredevil / Сезон: 3 / Серии: 1-13 из 13 [2018 WEBRip 1080p] MVO [NewStudio] bober100 Скачать
1 | 0
Зарубежные сериалы [ 7.81 GB ] Сорвиголова / Daredevil / Сезон: 3 / Серии: 1-13 из 13 [2018 WEBRip] MVO [Jaskier] bober100 Скачать
1 | 0
Зарубежные сериалы [ 11.17 GB ] Сорвиголова / Daredevil / Сезон: 3 / Серии: 1-13 из 13 [2018 WEBRip 720p] MVO [Jaskier] bober100 Скачать
1 | 0
Зарубежные сериалы [ 22.81 GB ] Сорвиголова / Daredevil / Сезон: 3 / Серии: 1-13 из 13 [2018 WEBRip 1080p] MVO [Jaskier] bober100 Скачать
1 | 0

28-11-2019 20:33  

Отключить всю рекламу на сайте

    Дорогой пользователь! Огромная просьба, поблагодарите релизера, оцените раздачу и оставьте свои комментарий, если Вы скачали Сорвиголова через торрент бесплатно! Внесите свою лепту в развитие PiratBit!
    Комментировать посты могут только пользователи прошедшие не сложную регистрацию
    Показать сообщения:    

    Сорвиголова через торрент
    Скачать бесплатно Сорвиголова
    Сорвиголова скачать торрент
    Сорвиголова смотреть онлайн
    Cкачать фильм Сорвиголова бесплатно
    Сорвиголова скачать торрент в хорошем качестве
    Сорвиголова смотреть онлайн бесплатно в хорошем качестве


    Вы не можете начинать темы
    Вы не можете отвечать на сообщения
    Вы не можете редактировать свои сообщения
    Вы не можете удалять свои сообщения
    Вы не можете голосовать в опросах
    Вы не можете прикреплять файлы к сообщениям
    Вы можете скачивать файлы