Ссылка на приватное зеркало нашего сайта всего за 1$. Внимание количество ограничено!!!

2 сезон

iTunes

1 сезон

1

2 сезон

2 сезон

iTunes

1 сезон

RePack

30

Ultimate

ВАЖНО

ИГРА 18+

pack

RePack

MK11
pack

Забери бонус

RePack

jed

!!Акция!!

Alien_Rage

RePack

fifa19

RePack

Assassins Creed: Odyssey

RePack

NEED FOR SPEED™ PAYBACK

4 сезон

9 сезон

Бесстыжие 9 сезон

Все сериалы

все сериалы на PB.wtf

RePack

FAR CRY 5
  

Сорвиголова / Daredevil / Сезон: 3 / Серии: 1-13 из 13 (Фил Абрахам, Стивен С. ДеНайт, Кен Джиротти) [2018, Фантастика, боевик, WEBRip 1080p] MVO [LostFilm] pb.wtf

Сорвиголова через торрент pb.wtf

Размер: 23.41 GB | Добавлен: 1 год 11 мес. назад | Торрент скачан:48 раз
Скачать  

24-10-2018 13:44 Сорвиголова Скачать торрент  

Сорвиголова / Daredevil Год выпуска: 2018
Страна: США
Жанр: Фантастика, боевик
Продолжительность: ~ 00:54:00
Перевод: Профессиональный (многоголосый) |
Субтитры: Russian, English

Режиссер: Фил Абрахам, Стивен С. ДеНайт, Кен Джиротти

rating

В ролях:

Чарли Кокс, Дебора Энн Уолл, Элден Хенсон, Розарио Доусон, Винсент Д`Онофрио, Айелет Зурер, Боб Гантон, Тоби Мур, Вонди Куртис-Холл, Роб Морган

Описание:

Мэтт Мердок отличный специалист, но в результате несчастного случае он потерял зрение еще в юном возрасте. Как известно, люди, потерявшие какой-либо орган чувств, усиливают все остальные рефлексы в несколько раз. Именно поэтому, лишенный зрения Мэрдок отлично чувствует и слышит все происходящее вокруг. Он решает посвятить свою жизнь борьбе с преступностью. Теперь он с утра и до вечера - успешный адвокат, а ночью превращается в неуловимого мстителя в маске по прозвищу Сорвиголова! Ночной город может спасть спокойно, когда на улицах города вершит правосудие этот человек, способный остановить любого злодея!

Качество: WEBRip 1080p | Чистый видеоряд
Формат: MKV

Видео: 1920x1080 at 23.976 fps, MPEG-4 AVC, ~3000 kbps avg
Аудио#1: Russian: 48 kHz, AC3, 3/2 (L,C,R,l,r) + LFE ch, ~448 kbps avg |Многоголосый закадровый, LostFilm|
Аудио#2: English: 48 kHz, AC3, 3/2 (L,C,R,l,r) + LFE ch, ~448 kbps avg
скриншот  скриншот  скриншот  скриншот  

Общее
Уникальный идентификатор : 120199495668022311824687758091172571423 (0x5A6D94AF5B47B13CDA862D8C3FFDE91F)
Полное имя : E:\Daredevil.S03.WEB-DL.1080p.Rus.Eng\Daredevil.S03E01.WEB-DL.1080p.Rus.Eng.mkv
Формат : Matroska
Версия формата : Version 4
Размер файла : 1,43 Гбайт
Продолжительность : 53 м. 23 с.
Режим общего битрейта : Переменный
Общий поток : 3826 Кбит/сек
Название фильма : Daredevil 3x01 (2018) - Release serial_M
Дата кодирования : UTC 2018-10-21 17:46:47
Программа кодирования : mkvmerge v20.0.0 ('I Am The Sun') 64-bit
Библиотека кодирования : libebml v1.3.5 + libmatroska v1.4.8

Видео
Идентификатор : 1
Формат : AVC
Формат/Информация : Advanced Video Codec
Профиль формата : Main@L4
Настройки формата : CABAC / 3 Ref Frames
Параметр CABAC формата : Да
Параметр RefFrames формата : 3 кадра
Идентификатор кодека : V_MPEG4/ISO/AVC
Продолжительность : 53 м. 23 с.
Вид битрейта : Переменный
Битрейт : 3010 Кбит/сек
Максимальный битрейт : 4515 Кбит/сек
Ширина : 1920 пикселей
Высота : 1080 пикселей
Соотношение сторон : 16:9
Режим частоты кадров : Постоянный
Частота кадров : 23,976 (24000/1001) кадра/сек
Цветовое пространство : YUV
Субдискретизация насыщенности : 4:2:0
Битовая глубина : 8 бит
Тип развёртки : Прогрессивная
Бит/(Пиксели*Кадры) : 0.061
Размер потока : 1,09 Гбайт (77%)
Заголовок : Daredevil 3x01 (2018) - Release serial_M
Библиотека кодирования : x264 core 148 r2715 7e75228
Настройки программы : cabac=1 / ref=3 / deblock=1:0:0 / analyse=0x1:0x111 / me=umh / subme=10 / psy=1 / psy_rd=1.00:0.00 / mixed_ref=1 / me_range=24 / chroma_me=1 / trellis=2 / 8x8dct=0 / cqm=0 / deadzone=21,11 / fast_pskip=1 / chroma_qp_offset=-2 / threads=8 / lookahead_threads=1 / sliced_threads=0 / nr=0 / decimate=1 / interlaced=0 / bluray_compat=0 / stitchable=1 / constrained_intra=0 / bframes=2 / b_pyramid=0 / b_adapt=2 / b_bias=0 / direct=3 / weightb=1 / open_gop=0 / weightp=2 / keyint=48 / keyint_min=25 / scenecut=0 / intra_refresh=0 / rc_lookahead=48 / rc=2pass / mbtree=1 / bitrate=3010 / ratetol=1.0 / qcomp=0.50 / qpmin=6 / qpmax=51 / qpstep=4 / cplxblur=20.0 / qblur=0.5 / vbv_maxrate=4515 / vbv_bufsize=6020 / nal_hrd=vbr / filler=0 / ip_ratio=1.40 / aq=1:1.00
Язык : English
Default : Да
Forced : Нет

Аудио #1
Идентификатор : 2
Формат : AC-3
Формат/Информация : Audio Coding 3
Коммерческое название : Dolby Digital
Идентификатор кодека : A_AC3
Продолжительность : 53 м. 23 с.
Вид битрейта : Постоянный
Битрейт : 448 Кбит/сек
Каналы : 6 каналов
Channel layout : L R C LFE Ls Rs
Частота : 48,0 КГц
Частота кадров : 31,250 кадров/сек (1536 SPF)
Битовая глубина : 16 бит
Метод сжатия : С потерями
Размер потока : 171 Мбайт (12%)
Заголовок : LostFilm
Язык : Russian
ServiceKind/String : Complete Main
Default : Да
Forced : Нет

Аудио #2
Идентификатор : 3
Формат : E-AC-3 JOC
Формат/Информация : Enhanced AC-3 with Joint Object Coding
Коммерческое название : Dolby Digital Plus with Dolby Atmos
Идентификатор кодека : A_EAC3
Продолжительность : 53 м. 23 с.
Вид битрейта : Постоянный
Битрейт : 448 Кбит/сек
Каналы : 6 каналов
Channel layout : L R C LFE Ls Rs
Частота : 48,0 КГц
Частота кадров : 31,250 кадров/сек (1536 SPF)
Метод сжатия : С потерями
Размер потока : 171 Мбайт (12%)
Заголовок : English
Язык : English
ServiceKind/String : Complete Main
Default : Нет
Forced : Нет
Complexity index : 16
Number of dynamic objects : 15
Bed channel count : 1 канал
Bed channel configuration : LFE

Текст #1
Идентификатор : 4
Формат : UTF-8
Идентификатор кодека : S_TEXT/UTF8
Идентификатор кодека/Информация : UTF-8 Plain Text
Продолжительность : 49 м. 26 с.
Битрейт : 75 бит/сек
ElementCount : 549
Размер потока : 27,4 Кбайт (0%)
Заголовок : rus-sub
Язык : Russian
Default : Нет
Forced : Нет

Текст #2
Идентификатор : 5
Формат : UTF-8
Идентификатор кодека : S_TEXT/UTF8
Идентификатор кодека/Информация : UTF-8 Plain Text
Продолжительность : 50 м. 27 с.
Битрейт : 56 бит/сек
ElementCount : 613
Размер потока : 20,9 Кбайт (0%)
Заголовок : eng-sub
Язык : English
Default : Нет
Forced : Нет

Когда раздача ведётся путём добавления новых серий, при каждом добавлении создётся новый торрент. Чтобы начать докачку новой серии, пользователям необходимо сделать следующее:
(1) остановить скачивание,
(2) удалить старый торрент у себя из клиента (старые серии удалять не надо),
(3) скачать новый торрент и запустить его у себя в клиенте вместо старого, при этом указать клиенту путь в старую папку, куда и должно происходить скачивание новых серий.
Ваш клиент при этом должен произвести хеширование (проверку) старой папки (если не производит сам - помогите ему сделать это), и будет докачивать только те серии, которых у вас ещё нет. Старые серии при этом не удаляются, а продолжают раздаваться!
Eсли вы уже удалили старые серии, то предотвратить повторную закачку старых серий можно, отжав галочку в соответсвующих местах при запуске нового торрента. По возможности, желательно не удалять старые серии как можно дольше, чтобы релизёр не столько продолжал раздавать старые серии, а смог сконцентрироваться на новых.
pb.wtf



Скачать Сорвиголова через торрент https://a.radikal.ru/a10/1810/44/d87fa8d15e01.jpg Скачать фильм Сорвиголова через торрент бесплантно в хорошем качестве Описание: Мэтт Мердок отличный специалист, но в результате несчастного случае он потерял зрение еще в юном возрасте. Как известно, люди, ... 10 10 4
Торрент: Зарегистрирован [2018-12-01 09:34] · скачан: 48 раз
Статус: √ проверено
Размер: 23.41 GB
Как cкачать? Как скачать Сорвиголова через торрент | qTorrent

% Раздел Тема Автор DL S | L
Зарубежные сериалы [ 108.37 GB ] Сорвиголова / Daredevil / Сезон: 3 / Серии: 1-13 из 13 [2018 UHD WEBRip-HEVC 2160p ] 3xMVO [LostFilm BaibaKo NewStudio] bober100 Скачать
1 | 0
Зарубежные сериалы [ 151.68 GB ] Сорвиголова / Daredevil / Сезон: 3 / Серии: 1-13 из 13 [2018 UHD WEBRip 2160p] 2xMVO [LostFilm BaibaKo] bober100 Скачать
1 | 0
Зарубежные сериалы [ 8.48 GB ] Сорвиголова / Daredevil / Сезон: 3 / Серии: 1-13 из 13 [2018 WEBRip] MVO [NewStudio] bober100 Скачать
1 | 0
Зарубежные сериалы [ 23.11 GB ] Сорвиголова / Daredevil / Сезон: 3 / Серии: 1-13 из 13 [2018 WEBRip 1080p] MVO [NewStudio] bober100 Скачать
1 | 0
Зарубежные сериалы [ 7.81 GB ] Сорвиголова / Daredevil / Сезон: 3 / Серии: 1-13 из 13 [2018 WEBRip] MVO [Jaskier] bober100 Скачать
1 | 0
Зарубежные сериалы [ 11.17 GB ] Сорвиголова / Daredevil / Сезон: 3 / Серии: 1-13 из 13 [2018 WEBRip 720p] MVO [Jaskier] bober100 Скачать
1 | 0
Зарубежные сериалы [ 22.81 GB ] Сорвиголова / Daredevil / Сезон: 3 / Серии: 1-13 из 13 [2018 WEBRip 1080p] MVO [Jaskier] bober100 Скачать
1 | 0

28-11-2019 20:33  

Отключить всю рекламу на сайте

    Дорогой пользователь! Огромная просьба, поблагодарите релизера, оцените раздачу и оставьте свои комментарий, если Вы скачали Сорвиголова через торрент бесплатно! Внесите свою лепту в развитие PiratBit!
    Комментировать посты могут только пользователи прошедшие не сложную регистрацию
    Показать сообщения:    

    Сорвиголова через торрент
    Скачать бесплатно Сорвиголова
    Сорвиголова скачать торрент
    Сорвиголова смотреть онлайн
    Cкачать фильм Сорвиголова бесплатно
    Сорвиголова скачать торрент в хорошем качестве
    Сорвиголова смотреть онлайн бесплатно в хорошем качестве


    Вы не можете начинать темы
    Вы не можете отвечать на сообщения
    Вы не можете редактировать свои сообщения
    Вы не можете удалять свои сообщения
    Вы не можете голосовать в опросах
    Вы не можете прикреплять файлы к сообщениям
    Вы можете скачивать файлы