2 сезон

iTunes

MVO

1

2 сезон

iTunes

iTunes

1 сезон

RePack

30

Новинка

ВАЖНО

ИГРА 18+

pack

RePack

MK11
pack

Легкие деньги

RePack

jed

RePack

fifa19

RePack

RDR2

RePack

NEED FOR SPEED™ PAYBACK

4 сезон

9 сезон

Бесстыжие 9 сезон

Все сериалы

все сериалы на PB.wtf

RePack

FAR CRY 5

Anonymous, доброе утро, мы не успеваем собрать деньги на оплату серверов за декабрь и январь, помогите нам пожалуйста в это трудное время. В качестве благодарности мы отключим Вам всю рекламу на сайте (укажите свой ник в строку Ваше имя)!

×
  
Magnet ссылка

Квадрат / The Square (Рубен Эстлунд) [2017, Драма, комедия, BDRip-AVC] 2xMVO [AB Video, Мельница] pb.wtf

Квадрат через торрент pb.wtf

Раздают: 2 [ 0 KB/s ]
Размер: 2.87 GB | Добавлен: 2 года 3 мес. назад | Торрент скачан:256 раз
Скачать  

24-10-2018 14:12 Квадрат Скачать торрент  

Квадрат / The Square
Год выпуска: 2017
Страна: Швеция, Германия, Франция, Дания
Жанр: Драма, комедия
Продолжительность: 02:31:24
Перевод:

• Профессиональный многоголосый | AB Video по заказу Первого канала
• Профессиональный многоголосый | студия "Мельница"

Субтитры: Русские (полные), Английские (форс., полные)

Режиссер: Рубен Эстлунд

rating

В ролях:

Клас Банг, Элизабет Мосс, Доминик Уэст, Терри Нотари, Кристофер Лессо, Софи Хэмилтон

Описание:

«Квадрат» — новый экспонат шведской галереи, призванный вызывать у горожан приступы любви и альтруизма. По крайней мере, так задумал куратор Кристиан с внешностью и сладкой жизнью Марчелло Мастрояни: коллеги, арт-тусовка, девушки — все от него без ума. Но когда средь бела дня у Кристиана крадут бумажник и телефон, он садится в свою Теслу и пускается в авантюру-реванш. Поначалу шутливое наказание воришек приводит к последствиям, которые заставят Кристиана забыть и «Квадрат», и его заповеди.

Качество: BDRip-AVC
Формат: MKV

Видео: 1024x554 (1.85:1), 24,000 fps, x264 ~2 076 kbps avg, 0.152 bit/pixel
Аудио#1: 48 kHz, AC3 Dolby Digital, 2 (L,R) ch, ~192.00 kbps avg | RUS (AB Video)
Аудио#2: 48 kHz, AC3 Dolby Digital, 3/2 (L,C,R,l,r) + LFE ch, ~448.00 kbps avg | RUS (Melnitsa)
скриншот  скриншот  скриншот  скриншот  скриншот  

Общее
Уникальный идентификатор : 218034283744922245578207596848951750513 (0xA407E0271B956D8F8A5AA5FACF2A6F71)
Полное имя : F:\OlLanDGroup\The.Square.2017.BDRip(AVC).OlLanDGroup.mkv
Формат : Matroska
Версия формата : Version 4 / Version 2
Размер файла : 2,87 Гбайт
Продолжительность : 2 ч. 31 м.
Общий поток : 2717 Кбит/сек
Название фильма : The.Square.2017 #TorpedoUK#
Дата кодирования : UTC 2018-10-24 12:46:34
Программа кодирования : mkvmerge v25.0.0 ('Prog Noir') 64-bit
Библиотека кодирования : libebml v1.3.6 + libmatroska v1.4.9

Видео
Идентификатор : 1
Формат : AVC
Формат/Информация : Advanced Video Codec
Профиль формата : High@L4.1
Параметр CABAC формата : Да
Параметр ReFrames формата : 10 кадров
Идентификатор кодека : V_MPEG4/ISO/AVC
Продолжительность : 2 ч. 31 м.
Битрейт : 2076 Кбит/сек
Ширина : 1024 пикселя
Высота : 554 пикселя
Соотношение сторон : 1,85:1
Режим частоты кадров : Постоянный
Частота кадров : 24,000 кадра/сек
Цветовое пространство : YUV
Субдискретизация насыщенности : 4:2:0
Битовая глубина : 8 бит
Тип развёртки : Прогрессивная
Бит/(Пиксели*Кадры) : 0.152
Размер потока : 2,19 Гбайт (76%)
Библиотека кодирования : x264 core 146 r2538 121396c
Настройки программы : cabac=1 / ref=10 / deblock=1:-3:-3 / analyse=0x3:0x113 / me=umh / subme=11 / psy=1 / psy_rd=0.99:0.04 / mixed_ref=1 / me_range=48 / chroma_me=1 / trellis=2 / 8x8dct=1 / cqm=0 / deadzone=21,11 / fast_pskip=1 / chroma_qp_offset=-3 / threads=6 / lookahead_threads=1 / sliced_threads=0 / nr=0 / decimate=1 / interlaced=0 / bluray_compat=0 / constrained_intra=0 / bframes=10 / b_pyramid=2 / b_adapt=2 / b_bias=0 / direct=3 / weightb=1 / open_gop=0 / weightp=2 / keyint=240 / keyint_min=24 / scenecut=40 / intra_refresh=0 / rc_lookahead=40 / rc=2pass / mbtree=0 / bitrate=2076 / ratetol=1.0 / qcomp=0.60 / qpmin=0 / qpmax=69 / qpstep=4 / cplxblur=20.0 / qblur=0.5 / vbv_maxrate=50000 / vbv_bufsize=62500 / nal_hrd=none / filler=0 / ip_ratio=1.40 / pb_ratio=1.30 / aq=1:1.00
Язык : English
Default : Да
Forced : Нет

Аудио #1
Идентификатор : 2
Формат : AC-3
Формат/Информация : Audio Coding 3
Расширение режима : CM (complete main)
Параметр Endianness формата : Big
Идентификатор кодека : A_AC3
Продолжительность : 2 ч. 31 м.
Вид битрейта : Постоянный
Битрейт : 192 Кбит/сек
Каналы : 2 канала
Расположение каналов : Front: L R
Частота : 48,0 КГц
Частота кадров : 31,250 кадров/сек (1536 spf)
Битовая глубина : 16 бит
Метод сжатия : С потерями
Размер потока : 208 Мбайт (7%)
Заголовок : MVO [AB Video]
Язык : Russian
Default : Да
Forced : Нет

Аудио #2
Идентификатор : 3
Формат : AC-3
Формат/Информация : Audio Coding 3
Расширение режима : CM (complete main)
Параметр Endianness формата : Big
Идентификатор кодека : A_AC3
Продолжительность : 2 ч. 31 м.
Вид битрейта : Постоянный
Битрейт : 448 Кбит/сек
Каналы : 6 каналов
Расположение каналов : Front: L C R, Side: L R, LFE
Частота : 48,0 КГц
Частота кадров : 31,250 кадров/сек (1536 spf)
Битовая глубина : 16 бит
Метод сжатия : С потерями
Размер потока : 484 Мбайт (16%)
Заголовок : MVO [Melnitsa]
Язык : Russian
Default : Нет
Forced : Нет

Текст #1
Идентификатор : 4
Формат : UTF-8
Идентификатор кодека : S_TEXT/UTF8
Идентификатор кодека/Информация : UTF-8 Plain Text
Продолжительность : 2 ч. 26 м.
Битрейт : 73 бит/сек
Count of elements : 1469
Размер потока : 78,7 Кбайт (0%)
Заголовок : Full
Язык : Russian
Default : Нет
Forced : Нет

Текст #2
Идентификатор : 5
Формат : UTF-8
Идентификатор кодека : S_TEXT/UTF8
Идентификатор кодека/Информация : UTF-8 Plain Text
Продолжительность : 2 ч. 25 м.
Битрейт : 33 бит/сек
Count of elements : 1000
Размер потока : 35,7 Кбайт (0%)
Заголовок : Forced
Язык : English
Default : Нет
Forced : Нет

Текст #3
Идентификатор : 6
Формат : UTF-8
Идентификатор кодека : S_TEXT/UTF8
Идентификатор кодека/Информация : UTF-8 Plain Text
Продолжительность : 2 ч. 25 м.
Битрейт : 43 бит/сек
Count of elements : 1485
Размер потока : 46,9 Кбайт (0%)
Заголовок : Full
Язык : English
Default : Нет
Forced : Нет

Меню
00:00:00.000 : en:Chapter 1
00:12:32.707 : en:Chapter 2
00:21:09.958 : en:Chapter 3
00:34:59.583 : en:Chapter 4
00:49:50.500 : en:Chapter 5
00:58:55.666 : en:Chapter 6
01:16:14.832 : en:Chapter 7
01:26:27.666 : en:Chapter 8
01:34:36.207 : en:Chapter 9
01:44:17.166 : en:Chapter 10
01:56:24.375 : en:Chapter 11
02:18:53.875 : en:Chapter 12

pb.wtf



Скачать Квадрат через торрент http://i92.fastpic.ru/big/2018/1024/46/cfab000068eef5b63e23c9186b779c46.jpg Скачать фильм Квадрат через торрент бесплантно в хорошем качестве Описание: «Квадрат» — новый экспонат шведской галереи, призванный вызывать у горожан приступы любви и альтруизма. По крайней мере, так ... 10 10 3
Торрент: Зарегистрирован [2018-10-24 14:12] · скачан: 256 раз
Статус: √ проверено
Размер: 2.87 GB
Как cкачать? Как скачать Квадрат через торрент | UTorrent

% Раздел Тема Автор DL S | L
T Фильмы 2017 [DVDrip, WEB-DLRip, HDrip] (DUB, MVO) [ 2.15 GB ] Квадрат / The Square [2017 HDTVRip] [MVO] killermax2013 Скачать
1 | 0
Фильмы (Blu-ray, BD-Remux, HDDVD) [ 29.82 GB ] Квадрат / The Square [2017 BD Remux 1080p] MVO ["Мельница"] bober100 Скачать
1 | 0
Фильмы [HD 720p, 1080p] (Хороший звук DUB, MVO) [ 6.57 GB ] Квадрат / The Square [2017 HDTVRip 1080p] [MVO] killermax2013 Скачать
1 | 0
Иностранные мультфильмы [ 698 MB ] Губка Боб - квадратные штаны / SpongeBob SquarePants Movie The [2004 мультфильм ... DVDRip] 2*2 Скачать
1 | 0

28-11-2019 20:33  

Отключить всю рекламу на сайте

25-10-2018 01:59 Квадрат Скачать торрент  

Кто смотрел? как фильм?pb.wtf



25-10-2018 02:13 Квадрат Скачать торрент  

aksaleale писал(а):

Кто смотрел? как фильм?

Смотрел давно и не охотно. Сложное кино, я не понял.pb.wtf



    Дорогой пользователь! Огромная просьба, поблагодарите релизера, оцените раздачу и оставьте свои комментарий, если Вы скачали Квадрат через торрент бесплатно! Внесите свою лепту в развитие PiratBit!
    Комментировать посты могут только пользователи прошедшие не сложную регистрацию
    Показать сообщения:    

    Квадрат через торрент
    Скачать бесплатно Квадрат
    Квадрат скачать торрент
    Квадрат смотреть онлайн
    Cкачать фильм Квадрат бесплатно
    Квадрат скачать торрент в хорошем качестве
    Квадрат смотреть онлайн бесплатно в хорошем качестве


    Вы не можете начинать темы
    Вы не можете отвечать на сообщения
    Вы не можете редактировать свои сообщения
    Вы не можете удалять свои сообщения
    Вы не можете голосовать в опросах
    Вы не можете прикреплять файлы к сообщениям
    Вы можете скачивать файлы