Ссылка на приватное зеркало всего за 1$. Внимание количество ограничено!!!

OK

1+1

iTunes

мы

OK

1

WEB-DLRip

Джокер

Пифагор

Ведьмак / The Witcher сериал

iTunes

ПШазам

ОК

Оно 2

iTunes

30
pack

Вам бонус

ВАЖНО

!!Акция!!

Alien_RageХит недели

RePack

Resident Evil 21

ИГРА 18+

pack

RePack

jed

RePack

fifa19

RePack

Assassins Creed: Odyssey

RePack

NEED FOR SPEED™ PAYBACK

4 сезон

9 сезон

Бесстыжие 9 сезон

Все сериалы

все сериалы на PB.wtf

RePack

FAR CRY 5
  

Чёрная Пантера / Black Panther (Райан Куглер) [2018, фантастика, боевик, приключения, BDRip - HEVC 1080p 12 bit 60 FPS] Дубляж - [Лицензия] pb.wtf

Чёрная Пантера через торрент pb.wtf

Раздают: 1 [ 0 KB/s ]
Размер: 7.77 GB | Добавлен: 1 год 3 мес. назад | Торрент скачан:197 раз
Скачать  

24-10-2018 15:59 Чёрная Пантера Скачать торрент  

Чёрная Пантера / Black Panther
««Да здравствует король»»

Год выпуска: 2018
Страна: США, ЮАР, Корея Южная, Австралия
Жанр: фантастика, боевик, приключения

Продолжительность: 02:14:33
Перевод: Дубляж - [Лицензия]
Субтитры: русские (Full),
Режиссер: Райан Куглер
В ролях:

Чедвик Боузман (T'Challa / Black Panther), Майкл Б. Джордан (Erik Killmonger), Лупита Нионго (Nakia), Данай Гурира (Okoye), Мартин Фриман (Everett K. Ross), Дэниэл Калуя (W'Kabi), Летишиа Райт (Shuri), Уинстон Дьюк (M'Baku), Стерлинг К. Браун (N'Jobu), Анджела Бассетт (Ramonda), Форест Уитакер (Zuri), Энди Серкис (Ulysses Klaue)
Описание:
С первого взгляда можно решить, что Ваканда - обычная территория дикой Африки, но это не так. Здесь, в недрах пустынных земель, скрываются залежи уникального металла, способного поглощать вибрацию. Многие пытались добраться до него, разоряя всё на своём пути и принося смерть аборигенам, но каждый раз таинственный дух саванны - Чёрная Пантера - вставал на защиту угнетённых.
Мировая премьера: 29 января 2018
rating

Качество: BDRip 1080p by DD2D3
Формат: MKV
Видео кодек: V_MPEGH/ISO/HEVC
Аудио кодек: AC3
Видео: V_MPEGH/ISO/HEVC, 1920x804 (2.40:1), 7625 kbps, 59,940 fps, 0,082 bpp
Аудио: русский / AC3 / 5.1 / 48 kHz / 640 kbps / ||
Навигация по главам: есть

General
Unique ID : 179943825877364638351460581561819061180 (0x875FEB95EDC5D5899E61E066C72DDBBC)
Complete name : D:\Чёрная Пантера - Black Panther (2018) BDRip - HEVC 1080p 12 bit 60 FPS.mkv
Format : Matroska
Format version : Version 4 / Version 2
File size : 7.77 GiB
Duration : 2 h 14 min
Overall bit rate : 8 270 kb/s
Movie name : Black Panther 2018 from ExKinoRay
Encoded date : UTC 2018-10-24 15:22:02
Writing application : mkvmerge v10.0.0 ('To Drown In You') 32bit
Writing library : libebml v1.3.4 + libmatroska v1.4.5
Attachments : poster

Video
ID : 1
Format : HEVC
Format/Info : High Efficiency Video Coding
Format profile : @L4.1@Main
Codec ID : V_MPEGH/ISO/HEVC
Duration : 2 h 14 min
Bit rate : 7 626 kb/s
Width : 1 920 pixels
Height : 804 pixels
Display aspect ratio : 2.40:1
Frame rate mode : Constant
Frame rate : 59.940 (60000/1001) FPS
Color space : YUV
Chroma subsampling : 4:2:0
Bit depth : 12 bits
Bits/(Pixel*Frame) : 0.082
Stream size : 7.17 GiB (92%)
Writing library : x265 2.3+33-0b7d54dbb71a87a0:[Windows][MSVC 1800][64 bit] 12bit: KG7x [x265.ru]
Encoding settings : cpuid=1173503 / frame-threads=2 / numa-pools=4 / wpp / no-pmode / no-pme / no-psnr / no-ssim / log-level=2 / input-csp=1 / input-res=1920x804 / interlace=0 / total-frames=483901 / level-idc=41 / high-tier=1 / uhd-bd=0 / ref=3 / no-allow-non-conformance / no-repeat-headers / annexb / no-aud / no-hrd / info / hash=0 / no-temporal-layers / open-gop / min-keyint=25 / keyint=250 / bframes=4 / b-adapt=2 / b-pyramid / bframe-bias=0 / rc-lookahead=20 / lookahead-slices=5 / scenecut=40 / no-intra-refresh / ctu=64 / min-cu-size=8 / no-rect / no-amp / max-tu-size=32 / tu-inter-depth=1 / tu-intra-depth=1 / limit-tu=0 / rdoq-level=0 / dynamic-rd=0.00 / no-ssim-rd / signhide / no-tskip / nr-intra=0 / nr-inter=0 / no-constrained-intra / strong-intra-smoothing / max-merge=2 / limit-refs=3 / no-limit-modes / me=1 / subme=2 / merange=57 / temporal-mvp / weightp / no-weightb / no-analyze-src-pics / deblock=0:0 / no-sao / no-sao-non-deblock / rd=3 / no-early-skip / no-rskip / no-fast-intra / no-tskip-fast / no-cu-lossless / no-b-intra / rdpenalty=0 / psy-rd=4.00 / psy-rdoq=0.00 / no-rd-refine / analysis-mode=0 / no-lossless / cbqpoffs=0 / crqpoffs=0 / rc=abr / bitrate=7624 / qcomp=0.60 / qpstep=1 / stats-write=0 / stats-read=2 / cplxblur=20.0 / qblur=0.5 / ipratio=1.10 / pbratio=1.00 / aq-mode=0 / aq-strength=0.00 / no-cutree / zone-count=0 / no-strict-cbr / qg-size=64 / rc-grain / qpmax=69 / qpmin=0 / sar=1 / overscan=0 / videoformat=5 / range=0 / colorprim=1 / transfer=1 / colormatrix=1 / chromaloc=0 / display-window=0 / max-cll=0,0 / min-luma=0 / max-luma=4095 / log2-max-poc-lsb=8 / vui-timing-info / vui-hrd-info / slices=1 / opt-qp-pps / opt-ref-list-length-pps / no-multi-pass-opt-rps / scenecut-bias=0.05 / no-opt-cu-delta-qp / no-aq-motion / no-hdr / no-hdr-opt / refine-level=5 / no-limit-sao
Default : Yes
Forced : No
Color range : Limited
Color primaries : BT.709
Transfer characteristics : BT.709
Matrix coefficients : BT.709

Audio
ID : 2
Format : AC-3
Format/Info : Audio Coding 3
Mode extension : CM (complete main)
Format settings, Endianness : Big
Codec ID : A_AC3
Duration : 2 h 14 min
Bit rate mode : Constant
Bit rate : 640 kb/s
Channel(s) : 6 channels
Channel positions : Front: L C R, Side: L R, LFE
Sampling rate : 48.0 kHz
Frame rate : 31.250 FPS (1536 spf)
Compression mode : Lossy
Stream size : 616 MiB (8%)
Title : Dub [License]
Language : Russian
Default : Yes
Forced : Yes

Text
ID : 3
Format : UTF-8
Codec ID : S_TEXT/UTF8
Codec ID/Info : UTF-8 Plain Text
Duration : 2 h 14 min
Bit rate : 64 b/s
Count of elements : 1460
Stream size : 63.8 KiB (0%)
Title : Full
Language : Russian
Default : No
Forced : No

Menu
00:00:00.000 : en:00:00:00.000
00:06:56.291 : en:00:06:56.291
00:12:02.805 : en:00:12:02.805
00:19:12.360 : en:00:19:12.360
00:28:32.961 : en:00:28:32.961
00:33:11.698 : en:00:33:11.698
00:40:57.497 : en:00:40:57.497
00:48:34.036 : en:00:48:34.036
00:53:46.098 : en:00:53:46.098
01:01:57.339 : en:01:01:57.339
01:08:33.026 : en:01:08:33.026
01:16:46.769 : en:01:16:46.769
01:22:24.022 : en:01:22:24.022
01:31:21.434 : en:01:31:21.434
01:41:15.361 : en:01:41:15.361
01:50:56.483 : en:01:50:56.483
01:59:16.941 : en:01:59:16.941
02:02:43.648 : en:02:02:43.648
скриншот  скриншот  скриншот  скриншот  
pb.wtf



Скачать Чёрная Пантера через торрент http://funkyimg.com/i/2MpVA.jpg Скачать фильм Чёрная Пантера через торрент бесплантно в хорошем качестве Описание: С первого взгляда можно решить, что Ваканда - обычная территория дикой Африки, но это не так. Здесь, в недрах пустынных земель, ... 10 10 9
Info! Золотая раздача, скачанное не засчитывается.
Торрент: Зарегистрирован [2018-10-24 15:59] · скачан: 197 раз
Статус: √ проверено
Размер: 7.77 GB
Как cкачать? Как скачать Чёрная Пантера через торрент | qTorrent

% Раздел Тема Автор DL S | L
Ultra HD (UHD: 2K, 4K, 8K) — видео сверхвысокой чёткости [ 16.31 GB ] Чёрная Пантера / Black Panther [2018 UHD BDRip 2160p] DUB [] bober100 Скачать
1 | 0
Ultra HD (UHD: 2K, 4K, 8K) — видео сверхвысокой чёткости [ 45.47 GB ] Чёрная Пантера / Black Panther [2018 UHD BDRemux 2160p] DUB [Dolby Vision TV] sheker187 Скачать
1 | 0
Фильмы (Blu-ray, BD-Remux, HDDVD) [ 40.08 GB ] Чёрная Пантера / Black Panther [2018 Blu-ray EUR 1080p] DUB [] bober100 Скачать
1 | 0
Фильмы (HD 720p, 1080p) (48-60 fps) [ 6.66 GB ] Чёрная Пантера / Black Panther [2018 BDRip 720p 60 fps от еnvy / NNNB] DUB | еnvy Скачать
15 | 2
Ultra HD (UHD: 2K, 4K, 8K) — видео сверхвысокой чёткости [ 12.43 GB ] Чёрная Пантера / Black Panther [2018 UHDRip 2160p HEVC ] Мичман37 Скачать
1 | 0
Фильмы [HD 720p, 1080p] (Хороший звук DUB, MVO) [ 6.01 GB ] Чёрная Пантера / Black Panther [2018 BDRip 1080p HEVC ] Мичман37 Скачать
3 | 0
Фильмы 2018 [DVDrip, WEB-DLRip, HDrip] (DUB, MVO) [ 1.46 GB ] Чёрная Пантера / Black Panther [2018 BDRip] - [] Twi7ter Скачать
3 | 0

28-11-2019 20:33  

Отключить всю рекламу на сайте

25-10-2018 04:23 Чёрная Пантера Скачать торрент  

т.е. все формальности соблюдены?Парочка белых актёров где то там мелькает таки? pb.wtf



    Дорогой пользователь! Огромная просьба, поблагодарите релизера, оцените раздачу и оставьте свои комментарий, если Вы скачали Чёрная Пантера через торрент бесплатно! Внесите свою лепту в развитие PiratBit!
    Комментировать посты могут только пользователи прошедшие не сложную регистрацию
    Показать сообщения:    

    Чёрная Пантера через торрент
    Скачать бесплатно Чёрная Пантера
    Чёрная Пантера скачать торрент
    Чёрная Пантера смотреть онлайн
    Cкачать фильм Чёрная Пантера бесплатно
    Чёрная Пантера скачать торрент в хорошем качестве
    Чёрная Пантера смотреть онлайн бесплатно в хорошем качестве


    Вы не можете начинать темы
    Вы не можете отвечать на сообщения
    Вы не можете редактировать свои сообщения
    Вы не можете удалять свои сообщения
    Вы не можете голосовать в опросах
    Вы не можете прикреплять файлы к сообщениям
    Вы можете скачивать файлы