Ссылка на приватное зеркало всего за 1$. Внимание количество ограничено!!!

OK

1+1

iTunes

мы

OK

1

WEB-DLRip

Джокер

Пифагор

Ведьмак / The Witcher сериал

iTunes

ПШазам

ОК

Оно 2

iTunes

30
pack

Вам бонус

ВАЖНО

!!Акция!!

Alien_RageХит недели

RePack

Resident Evil 21

ИГРА 18+

pack

RePack

jed

RePack

fifa19

RePack

Assassins Creed: Odyssey

RePack

NEED FOR SPEED™ PAYBACK

4 сезон

9 сезон

Бесстыжие 9 сезон

Все сериалы

все сериалы на PB.wtf

RePack

FAR CRY 5
  

Смертельный квест / No Escape Room (Алекс Меркин) [2018, Ужасы, WEB-DL 720p] MVO ["Синема УС"] pb.wtf

Смертельный квест через торрент pb.wtf

Размер: 2.99 GB | Добавлен: 1 год 3 мес. назад | Торрент скачан:153 раза
Скачать  

24-10-2018 17:09 Смертельный квест Скачать торрент  

Смертельный квест / No Escape RoomГод выпуска: 2018
Страна: США
Жанр: Ужасы
Продолжительность: 01:27:49
Перевод: Любительский (многоголосый) | "Синема УС"
Субтитры: отсутствуют

Режиссер: Алекс Меркин

rating

В ролях:

Дженни Росс, Марк Ганиме, Кэтрин Дэвис, Хамза Хак, Дэннис Андрес, Брианна Барнс, Кейт Хармэн, Саманта Амори, Джад Сайкали

Описание:

Простой квест, задачей которого является выбраться из дома, превращается в опасный паранормальный опыт, и отцу и дочери приходится спасаться от злого духа.

Качество: WEB-DL 720p
Формат: MKV

Видео: h.264,4 495 kb/s, 1280x720
Аудио#1: Русский, (AC3, 2 ch, 384 Кбит/с)
скриншот  скриншот  скриншот  

Общее
Уникальный идентификатор : 195360335017292034546414606305632455875 (0x92F9082B9DC853DAAE0F819061640CC3)
Полное имя : D:\No.Escape.Room.2O18.P.WEB-DL.72Op_KOSHARA.mkv
Формат : Matroska
Версия формата : Version 2
Размер файла : 2,99 Гбайт
Продолжительность : 1 ч. 27 м.
Режим общего битрейта : Переменный
Общий поток : 4881 Кбит/сек
Дата кодирования : UTC 2018-10-24 09:44:24
Программа кодирования : mkvmerge v8.3.0 ('Over the Horizon') 64bit
Библиотека кодирования : libebml v1.3.1 + libmatroska v1.4.2

Видео
Идентификатор : 1
Формат : AVC
Формат/Информация : Advanced Video Codec
Профиль формата : High@L4.1
Параметр CABAC формата : Да
Параметр RefFrames формата : 4 кадра
Идентификатор кодека : V_MPEG4/ISO/AVC
Продолжительность : 1 ч. 27 м.
Вид битрейта : Переменный
Битрейт : 4495 Кбит/сек
Максимальный битрейт : 5000 Кбит/сек
Ширина : 1280 пикселей
Высота : 720 пикселей
Соотношение сторон : 16:9
Режим частоты кадров : Постоянный
Частота кадров : 23,976 (24000/1001) кадра/сек
Стандарт вещания : Component
Цветовое пространство : YUV
Субдискретизация насыщенности : 4:2:0
Битовая глубина : 8 бит
Тип развёртки : Прогрессивная
Бит/(Пиксели*Кадры) : 0.199
Размер потока : 2,70 Гбайт (90%)
Default : Да
Forced : Нет
Цветовой диапазон : Limited
Основные цвета : BT.709
Характеристики трансфера : BT.709
Коэффициенты матрицы : BT.709

Аудио
Идентификатор : 2
Формат : AC-3
Формат/Информация : Audio Coding 3
Расширение режима : CM (complete main)
Параметр Endianness формата : Big
Идентификатор кодека : A_AC3
Продолжительность : 1 ч. 27 м.
Вид битрейта : Постоянный
Битрейт : 384 Кбит/сек
Каналы : 2 канала
Расположение каналов : Front: L R
Частота : 48,0 КГц
Частота кадров : 31,250 кадров/сек (1536 spf)
Метод сжатия : С потерями
Размер потока : 241 Мбайт (8%)
Default : Да
Forced : Нет

pb.wtf



Скачать Смертельный квест через торрент https://a.radikal.ru/a06/1810/77/128f52af4f68.jpg Скачать фильм Смертельный квест через торрент бесплантно в хорошем качестве Описание: Простой квест, задачей которого является выбраться из дома, превращается в опасный паранормальный опыт, и отцу и дочери ... 8.4 10 5
Торрент: Зарегистрирован [2018-10-24 17:09] · скачан: 153 раз
Статус: T временная
Размер: 2.99 GB
Как cкачать? Как скачать Смертельный квест через торрент | qTorrent

% Раздел Тема Автор DL S | L
T Фильмы 2018 [DVDrip, WEB-DLRip, HDrip] (DUB, MVO) [ 1.46 GB ] Смертельный квест / No Escape Room [2018 WEB-DLRip] MVO [HDRezka] - ExKinoRay Enigma2010 Скачать
2 | 0
T Фильмы (WEB-DL 720p, 1080p) [ 3.36 GB ] Смертельный квест / No Escape Room [2018 WEB-DL 1080p] MVO [HDRezka Studio] - ExKinoRay Enigma2010 Скачать
1 | 0
T Фильмы (мультфильмы) cо спонсором показа (Новинки AVI/MKV) [ 1.37 GB ] Смертельный квест / No Escape Room [2018 WEB-DLRip] MVO ["Синема УС"] bober100 Скачать
1 | 0

28-11-2019 20:33  

Отключить всю рекламу на сайте

26-10-2018 11:11 Смертельный квест Скачать торрент  

слабенький совсем фильмец. pb.wtf



04-11-2018 20:39 Смертельный квест Скачать торрент  

трешак...весь фильм деваха папкает "папа", "пап"...шлак...
автору спсpb.wtf



    Дорогой пользователь! Огромная просьба, поблагодарите релизера, оцените раздачу и оставьте свои комментарий, если Вы скачали Смертельный квест через торрент бесплатно! Внесите свою лепту в развитие PiratBit!
    Комментировать посты могут только пользователи прошедшие не сложную регистрацию
    Показать сообщения:    

    Смертельный квест через торрент
    Скачать бесплатно Смертельный квест
    Смертельный квест скачать торрент
    Смертельный квест смотреть онлайн
    Cкачать фильм Смертельный квест бесплатно
    Смертельный квест скачать торрент в хорошем качестве
    Смертельный квест смотреть онлайн бесплатно в хорошем качестве


    Вы не можете начинать темы
    Вы не можете отвечать на сообщения
    Вы не можете редактировать свои сообщения
    Вы не можете удалять свои сообщения
    Вы не можете голосовать в опросах
    Вы не можете прикреплять файлы к сообщениям
    Вы можете скачивать файлы