Ссылка на приватное зеркало всего за 1$. Внимание количество ограничено!!!

OK

1+1

iTunes

мы

OK

1

WEB-DLRip

Джокер

Пифагор

Ведьмак / The Witcher сериал

iTunes

ПШазам

ОК

Оно 2

iTunes

30
pack

Вам бонус

ВАЖНО

!!Акция!!

Alien_RageХит недели

RePack

Resident Evil 21

ИГРА 18+

pack

RePack

jed

RePack

fifa19

RePack

Assassins Creed: Odyssey

RePack

NEED FOR SPEED™ PAYBACK

4 сезон

9 сезон

Бесстыжие 9 сезон

Все сериалы

все сериалы на PB.wtf

RePack

FAR CRY 5
  

Отряд мертвецов: Храм восставших из мертвых / Dead Squad: Temple of the Undead (Доминик Хаузер) [2018, Ужасы, WEB-DL 720p] MVO ["Синема УС"] pb.wtf

Отряд мертвецов: Храм восставших из мертвых через торрент pb.wtf

Размер: 3.46 GB | Добавлен: 1 год 3 мес. назад | Торрент скачан:110 раз
Скачать  

24-10-2018 17:28 Отряд мертвецов: Храм восставших из мертвых Скачать торрент  

Отряд мертвецов: Храм восставших из мертвых / Dead Squad: Temple of the Undead Год выпуска: 2018
Страна: США
Жанр: Ужасы
Продолжительность: 01:33:43
Перевод: Любительский (многоголосый) | "Синема УС"
Субтитры: отсутствуют

Режиссер: Доминик Хаузер

rating

В ролях:

Эрика Эрвин, Конан Стивенс, Карма Шэрон, Райан Собольски, Алина Карсон, Джонатан Лупер, Бьянка Цуппас, Река Гавальди, Элизабет Морзе

Описание:

Группа молодых людей потерялась в джунглях, сплавляясь по реке, и наткнулась на давно затерянные рукины, которые были домом уймы таинственных монстров.

Качество: WEB-DL 720p
Формат: MKV

Видео: h.264, 4 895 kb/s, 1280x720
Аудио#1: Русский, (AC3, 2 ch, 384 Кбит/с)
скриншот  скриншот  скриншот  

Общее
Уникальный идентификатор : 185607782955798631312123703017512659842 (0x8BA2C23ADB72EBE3BA6E39AFC4BC6B82)
Полное имя : D:\Dead.Squad.Temple.of.the.Undead.2O18.P.WEB-DL.72Op_KOSHARA.mkv
Формат : Matroska
Версия формата : Version 2
Размер файла : 3,46 Гбайт
Продолжительность : 1 ч. 33 м.
Режим общего битрейта : Переменный
Общий поток : 5281 Кбит/сек
Дата кодирования : UTC 2018-10-24 12:42:25
Программа кодирования : mkvmerge v8.3.0 ('Over the Horizon') 64bit
Библиотека кодирования : libebml v1.3.1 + libmatroska v1.4.2

Видео
Идентификатор : 1
Формат : AVC
Формат/Информация : Advanced Video Codec
Профиль формата : High@L4.1
Параметр CABAC формата : Да
Параметр RefFrames формата : 4 кадра
Идентификатор кодека : V_MPEG4/ISO/AVC
Продолжительность : 1 ч. 33 м.
Вид битрейта : Переменный
Битрейт : 4895 Кбит/сек
Максимальный битрейт : 5500 Кбит/сек
Ширина : 1280 пикселей
Высота : 720 пикселей
Соотношение сторон : 16:9
Режим частоты кадров : Постоянный
Частота кадров : 23,976 (24000/1001) кадра/сек
Стандарт вещания : Component
Цветовое пространство : YUV
Субдискретизация насыщенности : 4:2:0
Битовая глубина : 8 бит
Тип развёртки : Прогрессивная
Бит/(Пиксели*Кадры) : 0.217
Размер потока : 3,14 Гбайт (91%)
Default : Да
Forced : Нет
Цветовой диапазон : Limited
Основные цвета : BT.709
Характеристики трансфера : BT.709
Коэффициенты матрицы : BT.709

Аудио
Идентификатор : 2
Формат : AC-3
Формат/Информация : Audio Coding 3
Расширение режима : CM (complete main)
Параметр Endianness формата : Big
Идентификатор кодека : A_AC3
Продолжительность : 1 ч. 33 м.
Вид битрейта : Постоянный
Битрейт : 384 Кбит/сек
Каналы : 2 канала
Расположение каналов : Front: L R
Частота : 48,0 КГц
Частота кадров : 31,250 кадров/сек (1536 spf)
Метод сжатия : С потерями
Размер потока : 257 Мбайт (7%)
Default : Да
Forced : Нет

pb.wtf



Скачать Отряд мертвецов: Храм восставших из мертвых через торрент https://a.radikal.ru/a43/1810/6b/d2c12a4742f0.jpg Скачать фильм Отряд мертвецов: Храм восставших из мертвых через торрент бесплантно в хорошем качестве Описание: Группа молодых людей потерялась в джунглях, сплавляясь по реке, и наткнулась на давно затерянные рукины, которые были домом уймы ... 10 10 7
Торрент: Зарегистрирован [2018-10-24 17:28] · скачан: 110 раз
Статус: T временная
Размер: 3.46 GB
Как cкачать? Как скачать Отряд мертвецов: Храм восставших из мертвых через торрент | qTorrent

% Раздел Тема Автор DL S | L
T Фильмы (мультфильмы) cо спонсором показа (Новинки AVI/MKV) [ 1.37 GB ] Отряд мертвецов: Храм восставших из мертвых / Dead Squad: Temple of the Undead [2018 WEB-DLRip] MVO ["Синема УС"] bober100 Скачать
1 | 0

28-11-2019 20:33  

Отключить всю рекламу на сайте

24-10-2018 19:58 Отряд мертвецов: Храм восставших из мертвых Скачать торрент  

Что за " ...рукины,...."pb.wtf



25-10-2018 07:32 Отряд мертвецов: Храм восставших из мертвых Скачать торрент  

додумайся сам -руины-pb.wtf



    Дорогой пользователь! Огромная просьба, поблагодарите релизера, оцените раздачу и оставьте свои комментарий, если Вы скачали Отряд мертвецов: Храм восставших из мертвых через торрент бесплатно! Внесите свою лепту в развитие PiratBit!
    Комментировать посты могут только пользователи прошедшие не сложную регистрацию
    Показать сообщения:    

    Отряд мертвецов: Храм восставших из мертвых через торрент
    Скачать бесплатно Отряд мертвецов: Храм восставших из мертвых
    Отряд мертвецов: Храм восставших из мертвых скачать торрент
    Отряд мертвецов: Храм восставших из мертвых смотреть онлайн
    Cкачать фильм Отряд мертвецов: Храм восставших из мертвых бесплатно
    Отряд мертвецов: Храм восставших из мертвых скачать торрент в хорошем качестве
    Отряд мертвецов: Храм восставших из мертвых смотреть онлайн бесплатно в хорошем качестве


    Вы не можете начинать темы
    Вы не можете отвечать на сообщения
    Вы не можете редактировать свои сообщения
    Вы не можете удалять свои сообщения
    Вы не можете голосовать в опросах
    Вы не можете прикреплять файлы к сообщениям
    Вы можете скачивать файлы