новый адрес
Ссылка на приватное зеркало всего за 1$. Внимание количество ограничено!!!

iTunes

1+1

iTunes

мы

WEB-DL

1

iTunes

Чернобыль

iTunes

Ральф против интернета

Лицензия

ПШазам

Лицензия

Оно 2

Лицензия

30
pack

Вам бонус

ВАЖНО

!!Акция!!

Alien_RageХит недели

RePack

Resident Evil 21

ИГРА 18+

pack

RePack

jed

!!Акция!!

Alien_Rage

RePack

fifa19

RePack

Assassins Creed: Odyssey

RePack

NEED FOR SPEED™ PAYBACK

3 сезон

9 сезон

Бесстыжие 9 сезон

Все сериалы

все сериалы на PB.wtf

RePack

FAR CRY 5
Ребята, катастрофически не хватает 1900р. для оплаты серверов за Октябрь (всвязи с блокировками трафик упал в 3 раза), 1-2р., выручайте.
  

Шпион, который меня кинул / The Spy Who Dumped Me (Сюзанна Фогель) [2018 г., боевик, комедия, приключения, HDRip] DUB [iTunes] pb.wtf

Шпион, который меня кинул через торрент pb.wtf

Раздают: 6 [ 86 KB/s ]
Размер: 2.18 GB | Добавлен: 1 год 1 мес. назад | Торрент скачан:1102 раза
Скачать  

24-10-2018 21:10 Шпион, который меня кинул Скачать торрент  

Шпион, который меня кинул / The Spy Who Dumped Me
Год выпуска: 2018
Страна: США, Канада
Жанр: Боевик, комедия, приключения
Продолжительность: 01:56:56
Перевод: Дубляж iTunes
Субтитры: Английские (отдельным файлом)

Режиссер: Сюзанна Фогель

rating

В ролях: Мила Кунис, Кейт МакКиннон, Сэм Хьюэн, Джастин Теру, Джиллиан Андерсон, Хасан Минхадж, Иванна Сахно, Фред Меламед, Бланка Дьёрфи-Тот, Вильма Сечи

Описание: Одри и Морган, лучшие подруги из Лос-Анджелеса, неожиданно оказываются в эпицентре международного заговора, когда бывший Одри заявляется к ней с толпой идущих по следу кровожадных убийц. Удивляясь сами себе, девушки берутся за нелегкое дело спасения мира. Их ждет полная опасностей - и киллеров - шпионская гонка по всей Европе, где на пути им встречается очень подозрительный, но такой обаятельный британский агент...
Качество: HDRip
Формат: AVI
Видео кодек: XviD
Аудио кодек: AC3
Видео: XviD, 1881 Кбит/с, 720x304
Аудио#1: Русский, AC3, 6 ch, 384 Кбит/с
Аудио#2: Английский, AC3, 6 ch, 384 Кбит/с
Видео
Идентификатор : 0
Формат : MPEG-4 Visual
Профиль формата : Advanced Simple@L5
Настройки формата : BVOP1 / Custom Matrix
Параметр BVOP формата : 1
Параметр QPel формата : Нет
Параметр GMC формата : Без точки перехода
Параметр матрицы формата : Выборочная
Идентификатор кодека : XVID
Идентификатор кодека/Подсказка : XviD
Продолжительность : 1 ч. 56 м.
Битрейт : 1881 Кбит/сек
Ширина : 720 пикселей
Высота : 304 пикселя
Соотношение сторон : 2,35:1
Частота кадров : 23,976 (24000/1001) кадра/сек
Цветовое пространство : YUV
Субдискретизация насыщенности : 4:2:0
Битовая глубина : 8 бит
Тип развёртки : Прогрессивная
Метод сжатия : С потерями
Бит/(Пиксели*Кадры) : 0.358
Размер потока : 1,54 Гбайт (71%)
Библиотека кодирования : XviD 73

Аудио #1
Идентификатор : 1
Формат : AC-3
Формат/Информация : Audio Coding 3
Идентификатор кодека : 2000
Продолжительность : 1 ч. 56 м.
Вид битрейта : Постоянный
Битрейт : 384 Кбит/сек
Каналы : 6 каналов
Расположение каналов : Front: L C R, Side: L R, LFE
Частота : 48,0 КГц
Частота кадров : 31,250 кадров/сек (1536 SPF)
Битовая глубина : 16 бит
Метод сжатия : С потерями
Размер потока : 321 Мбайт (14%)
Выравнивание : Разделение по промежуткам
Продолжительность промежутка : 42 мс. (1,00 видеокадр)
Время предзагрузки промежутка : 500 мс.
ServiceKind/String : Complete Main

Аудио #2
Идентификатор : 2
Формат : AC-3
Формат/Информация : Audio Coding 3
Идентификатор кодека : 2000
Продолжительность : 1 ч. 56 м.
Вид битрейта : Постоянный
Битрейт : 384 Кбит/сек
Каналы : 6 каналов
Расположение каналов : Front: L C R, Side: L R, LFE
Частота : 48,0 КГц
Частота кадров : 31,250 кадров/сек (1536 SPF)
Битовая глубина : 16 бит
Метод сжатия : С потерями
Размер потока : 321 Мбайт (14%)
Выравнивание : Разделение по промежуткам
Продолжительность промежутка : 42 мс. (1,00 видеокадр)
Время предзагрузки промежутка : 500 мс.
ServiceKind/String : Complete Main

скриншот   скриншот   скриншот   скриншот   скриншот  

pb.wtf



Скачать Шпион, который меня кинул через торрент http://pic1.kartinco.top/images/11/17q1h.jpg Скачать фильм Шпион, который меня кинул через торрент бесплантно в хорошем качестве Описание: Одри и Морган, лучшие подруги из Лос-Анджелеса, неожиданно оказываются в эпицентре международного заговора, когда бывший Одри ... 9.2 10 20
Info! Золотая раздача, скачанное не засчитывается.
Торрент: Зарегистрирован [2018-10-24 21:10] · скачан: 1 102 раз
Статус: √ проверено
Размер: 2.18 GB
Как cкачать? Как скачать Шпион, который меня кинул через торрент | qTorrent

% Раздел Тема Автор DL S | L
Фильмы 2018 [DVDrip, WEB-DLRip, HDrip] (DUB, MVO) [ 1.47 GB ] Шпион который меня кинул / The Spy Who Dumped Me [2018 HDRip] bober100 Скачать
84 | 0
Фильмы [HD 720p, 1080p] (Хороший звук DUB, MVO) [ 8.22 GB ] Шпион который меня кинул / The Spy Who Dumped Me [2018 BDRip 1080p] bober100 Скачать
3 | 0
Фильмы 2018 [DVDrip, WEB-DLRip, HDrip] (DUB, MVO) [ 2.13 GB ] Шпион который меня кинул / The Spy Who Dumped Me [2018 BDRip] - Twi7ter Скачать
5 | 0
Фильмы 2018 [DVDrip, WEB-DLRip, HDrip] (DUB, MVO) [ 1.41 GB ] Шпион который меня кинул / The Spy Who Dumped Me [2018 BDRip] - Twi7ter Скачать
9 | 0
Фильмы [HD 720p, 1080p] (Хороший звук DUB, MVO) [ 6.4 GB ] Шпион который меня кинул / The Spy Who Dumped Me [2018 BDRip 1080p HEVC ()] Мичман37 Скачать
2 | 0
Фильмы 2018 [DVDrip, WEB-DLRip, HDrip] (DUB, MVO) [ 711 MB ] Шпион который меня кинул / The Spy Who Dumped Me [2018 HDRip ""] coc900 Скачать
1 | 0
Ultra HD (UHD: 2K, 4K, 8K) — видео сверхвысокой чёткости [ 36.63 GB ] Шпион который меня кинул / The Spy Who Dumped Me [2018 UHD BDRip 2160p] [SDR] - sheker187 Скачать
2 | 0

28-11-2019 20:33  

Отключить всю рекламу на сайте

26-10-2018 21:16 Шпион, который меня кинул Скачать торрент  

Тупая женская комедия с идиотскими диалогами, Мила Кунис как всегда ничего не боится , делает вещи с невозмутимым выражением лица, как будто каждый день у неё такой ... не советую. Включили с женой, через пол фильма уже занимались сексом ..pb.wtf



01-11-2018 01:55 Шпион, который меня кинул Скачать торрент  

cheetos писал(а):

Тупая женская комедия с идиотскими диалогами, Мила Кунис как всегда ничего не боится , делает вещи с невозмутимым выражением лица, как будто каждый день у неё такой ... не советую. Включили с женой, через пол фильма уже занимались сексом ..

Мы так на каждом фильмеpb.wtf



    Дорогой пользователь! Огромная просьба, поблагодарите релизера, оцените раздачу и оставьте свои комментарий, если Вы скачали Шпион, который меня кинул через торрент бесплатно! Внесите свою лепту в развитие PiratBit!
    Комментировать посты могут только пользователи прошедшие не сложную регистрацию
    Показать сообщения:    

    Шпион, который меня кинул через торрент
    Скачать бесплатно Шпион, который меня кинул
    Шпион, который меня кинул скачать торрент
    Шпион, который меня кинул смотреть онлайн
    Cкачать фильм Шпион, который меня кинул бесплатно
    Шпион, который меня кинул скачать торрент в хорошем качестве
    Шпион, который меня кинул смотреть онлайн бесплатно в хорошем качестве


    Вы не можете начинать темы
    Вы не можете отвечать на сообщения
    Вы не можете редактировать свои сообщения
    Вы не можете удалять свои сообщения
    Вы не можете голосовать в опросах
    Вы не можете прикреплять файлы к сообщениям
    Вы можете скачивать файлы