Anonymous, добрый вечер, присоединяйтесь к нам в Telegram!, здесь всегда актуальный адрес сайта, оперативная поддержка и многое другое!

>

5.6

iTunes

7.4

iTunes

7.9

MVO

1

7.7

1 сезон

6.8

iTunes

7.3

1 сезон

13

6.7

1 сезон

8.3

RePack

30

ULTIMATE

pack

9.9

Лицензия

ВАЖНО

ИГРА 18+

pack

7.3

RePack

MK11

7.7

RePack

jed

7.8

RePack

fifa19

8.5

RePack

RDR2

RePack

NEED FOR SPEED™ PAYBACK

4 сезон

9 сезон

Бесстыжие 9 сезон

Все сериалы

все сериалы на PB.wtf

RePack

FAR CRY 5

Anonymous, добрый вечер, мы катастрофически не успеваем собрать деньги на оплату серверов, помогите нам пожалуйста 5,10,15р., для нас важна любая помощь . В качестве благодарности мы отключим Вам всю рекламу на сайте (укажите свой ник в строку Ваше имя)!

×
  
Magnet ссылка

Домашний арест / Сезон: 1 / Серии: 1-12 из 12 (Пётр Буслов) [2018, комедия, WEB-DLRip-AVC] - ExKinoRay pb.wtf

Домашний арест через торрент pb.wtf

Размер: 11.2 GB | Добавлен: 2 года 11 мес. назад | Торрент скачан:168 раз
Смотреть онлайн Домашний арест | Скачать    Ребята, помогите собрать деньги на оплату серверов!!!

25-10-2018 01:18 Домашний арест Скачать торрент  

Оригинальное название: Домашний арест
Год выпуска: 2018
Жанр: Комедия
Выпущено: Россия, Comedy Club Production
Режиссер: Пётр Буслов
В ролях: Павел Деревянко, Александр Робак, Егор Клинаев, Юлия Сорокина, Анна Уколова, Тимофей Трибунцев, Марина Александрова (I), Сергей Бурунов, Илья Коврижных, Виктория Самилкина

Описание: Мэр небольшого города попался на взятке и в качестве меры пресечения ему назначен домашний арест по месту прописки. Коллизия в том, что, чтобы казаться скромнее, чиновник прописан не в своем особняке, а в коммунальной квартире, в которой когда-то родился и вырос. Так он попадает в коммунальный ад своей старой квартиры. Он больше не главный и сам в свою очередь оказывается во власти простых обитателей коммуналки.

Продолжительность: 12 х ~ 01:07:00
Язык: Русский

Качество: WEB-DLRip-AVC
Видео: MPEG-4 AVC, ~ 1650 Кбит/с, 720x404 (16:9), 25.000 fps
Аудио: 48 kHz, AC3, 2.0, 192 Kbps
General
Unique ID : 178237953554521516726173976286397807972 (0x861761962C133460B8269CA9272D3D64)
Complete name : D:\Domashniy.Arest.2018.WEB-DLRip.AVC.ExKinoRay\Domashniy.Arest.e02.2018.WEB-DLRip.AVC.ExKinoRay.mkv
Format : Matroska
Format version : Version 2
File size : 979 MiB
Duration : 1 h 14 min
Overall bit rate : 1 833 kb/s
Movie name : Domashniy Arest e02 2018 from ExKinoRay
Encoded date : UTC 2018-10-03 22:59:01
Writing application : mkvmerge v5.6.0 ('Kenya Kane') built on May 27 2012 16:44:04
Writing library : libebml v1.2.3 + libmatroska v1.3.0

Video
ID : 1
Format : AVC
Format/Info : Advanced Video Codec
Format profile : High@L4.1
Format settings, CABAC : Yes
Format settings, ReFrames : 10 frames
Codec ID : V_MPEG4/ISO/AVC
Duration : 1 h 14 min
Bit rate : 1 640 kb/s
Width : 720 pixels
Height : 404 pixels
Display aspect ratio : 16:9
Frame rate mode : Constant
Frame rate : 25.000 FPS
Color space : YUV
Chroma subsampling : 4:2:0
Bit depth : 8 bits
Scan type : Progressive
Bits/(Pixel*Frame) : 0.226
Stream size : 857 MiB (88%)
Title : Enigma
Writing library : x264 core 152 r2851 ba24899
Encoding settings : cabac=1 / ref=10 / deblock=1:-2:-2 / analyse=0x3:0x113 / me=umh / subme=10 / psy=1 / psy_rd=1.05:0.10 / mixed_ref=1 / me_range=32 / chroma_me=1 / trellis=2 / 8x8dct=1 / cqm=0 / deadzone=21,11 / fast_pskip=0 / chroma_qp_offset=-3 / threads=12 / lookahead_threads=3 / sliced_threads=0 / nr=0 / decimate=0 / interlaced=0 / bluray_compat=0 / constrained_intra=0 / bframes=10 / b_pyramid=2 / b_adapt=2 / b_bias=0 / direct=3 / weightb=1 / open_gop=0 / weightp=2 / keyint=250 / keyint_min=25 / scenecut=40 / intra_refresh=0 / rc=2pass / mbtree=0 / bitrate=1640 / ratetol=1.0 / qcomp=0.60 / qpmin=0 / qpmax=51 / qpstep=4 / cplxblur=20.0 / qblur=0.5 / ip_ratio=1.40 / pb_ratio=1.30 / aq=1:1.00
Default : Yes
Forced : No
Color range : Limited
Color primaries : BT.709
Transfer characteristics : BT.709
Matrix coefficients : BT.709

Audio
ID : 2
Format : AC-3
Format/Info : Audio Coding 3
Mode extension : CM (complete main)
Format settings, Endianness : Big
Codec ID : A_AC3
Duration : 1 h 14 min
Bit rate mode : Constant
Bit rate : 192 kb/s
Channel(s) : 2 channels
Channel positions : Front: L R
Sampling rate : 48.0 kHz
Frame rate : 31.250 FPS (1536 spf)
Compression mode : Lossy
Stream size : 102 MiB (10%)
Language : Russian
Default : Yes
Forced : No
Релиз от:

Автор релиза: pb.wtf



Скачать Домашний арест через торрент http://i99.fastpic.ru/big/2018/0817/40/875a396a22cbd083ff4435d171045540.jpg Скачать, смотреть онлайн Домашний арест бесплантно в хорошем качестве Описание: Мэр небольшого города попался на взятке и в качестве меры пресечения ему назначен домашний арест по месту прописки. Коллизия в ... 10 10 6
Info! Золотая раздача, скачанное не засчитывается.
Торрент: Зарегистрирован [2018-10-25 01:18] · скачан: 168 раз
Статус: √ проверено
Размер: 11.2 GB
Как cкачать? Как скачать Домашний арест через торрент | UTorrent

28-11-2019 20:33  

Отключить всю рекламу на сайте

    Дорогой пользователь! Огромная просьба, поблагодарите релизера, оцените раздачу и оставьте свои комментарий, если Вы скачали Домашний арест через торрент бесплатно!
    Комментировать посты могут только пользователи прошедшие не сложную регистрацию
    Показать сообщения:    

    Домашний арест через торрент
    Скачать бесплатно Домашний арест
    Домашний арест скачать торрент
    Домашний арест смотреть онлайн
    Cкачать фильм Домашний арест бесплатно
    Домашний арест скачать торрент в хорошем качестве
    Домашний арест смотреть онлайн бесплатно в хорошем качестве


    Вы не можете начинать темы
    Вы не можете отвечать на сообщения
    Вы не можете редактировать свои сообщения
    Вы не можете удалять свои сообщения
    Вы не можете голосовать в опросах
    Вы не можете прикреплять файлы к сообщениям
    Вы можете скачивать файлы