Ссылка на приватное зеркало нашего сайта всего за 1$. Внимание количество ограничено!!!

2 сезон

iTunes

1 сезон

1

2 сезон

2 сезон

iTunes

1 сезон

RePack

30

Новинка

ВАЖНО

ИГРА 18+

pack

RePack

MK11
pack

Забери бонус

RePack

jed

!!Акция!!

Alien_Rage

RePack

fifa19

RePack

Assassins Creed: Odyssey

RePack

NEED FOR SPEED™ PAYBACK

4 сезон

9 сезон

Бесстыжие 9 сезон

Все сериалы

все сериалы на PB.wtf

RePack

FAR CRY 5
  

Хороший коп / The Good Cop / Сезон: 1 / Серии: 1-10 из 10 (Нима Барнетт, Родриго Гарсия, Алекс Хардкасл) [2018, Драма, комедия, WEB-DLRip] [MVO] (Newstudio) pb.wtf

Хороший коп через торрент pb.wtf

Размер: 5.37 GB | Добавлен: 2 года 1 мес. назад | Торрент скачан:22 раза
Скачать  

25-10-2018 15:37 Хороший коп Скачать торрент  

Хороший коп / The Good Cop
«Son's on patrol. Dad's on parole»

Производство: США
Год выпуска: 2018
Жанр: драма, комедия
Продолжительность: 1x~ 00:46:00
Перевод: Профессиональный (многоголосый закадровый) | Newstudio

Режиссёр: Рэндолл Зиск, Кевин Хукс, Ребекка Эшер

В ролях: Моника Барбаро, Тони Данза, Джош Гробан, Билл Котткамп, Мэттью Сальдивар, Джон Скерти, Виктор Круз, Томас Д. Уивер

Описание:
Тони-старший — не самый честный бывший нью-йоркский полицейский, не привыкший следовать правилам. Они живёт со своим сыном — Тони-младшим, честным и порядочным детективом, который всё делает согласно букве закона. Тони-старший считает, что его сын чрезмерно осторожничает и боится рисковать, и что только его опыт сможет помочь Тони-младшему стать настоящим полицейским.
rating

Качество видео: WEB-DLRip
Формат: AVI
Видео: XviD, ~ 1300 Кбит/с, 720x368
Аудио Rus: MP3, 48 kHz, 2 ch, 128 kbps |Newstudio|
Аудио Eng: MP3, 48 kHz, 2 ch, 128 kbps |Original|
Субтитры: нет
General
Complete name : E:\The.Good.Cop.s01.WEBDLRip.NewStudio.TV\The.Good.Cop.s01e01.WEBDLRip.NewStudio.TV.avi
Format : AVI
Format/Info : Audio Video Interleave
File size : 550 MiB
Duration : 45 min 58 s
Overall bit rate : 1 673 kb/s
Writing application : VirtualDubMod 1.5.10.2 (build 2540/release)
Writing library : VirtualDubMod build 2540/release

Video
ID : 0
Format : MPEG-4 Visual
Format profile : Advanced Simple@L5
Format settings : BVOP2 / QPel
Format settings, BVOP : 2
Format settings, QPel : Yes
Format settings, GMC : No warppoints
Format settings, Matrix : Default (MPEG)
Muxing mode : Packed bitstream
Codec ID : XVID
Codec ID/Hint : XviD
Duration : 45 min 58 s
Bit rate : 1 340 kb/s
Width : 720 pixels
Height : 368 pixels
Display aspect ratio : 1.957
Frame rate : 23.976 (24000/1001) FPS
Color space : YUV
Chroma subsampling : 4:2:0
Bit depth : 8 bits
Scan type : Progressive
Compression mode : Lossy
Bits/(Pixel*Frame) : 0.211
Stream size : 441 MiB (80%)
Writing library : XviD 67

Audio #1
ID : 1
Format : MPEG Audio
Format version : Version 1
Format profile : Layer 3
Format settings : Joint stereo / MS Stereo
Mode : Joint stereo
Mode extension : MS Stereo
Codec ID : 55
Codec ID/Hint : MP3
Duration : 45 min 58 s
Bit rate mode : Constant
Bit rate : 128 kb/s
Channel(s) : 2 channels
Sampling rate : 48.0 kHz
Compression mode : Lossy
Stream size : 42.1 MiB (8%)
Alignment : Aligned on interleaves

Audio #2
ID : 2
Format : MPEG Audio
Format version : Version 1
Format profile : Layer 3
Format settings : Joint stereo
Mode : Joint stereo
Codec ID : 55
Codec ID/Hint : MP3
Duration : 45 min 58 s
Bit rate mode : Constant
Bit rate : 128 kb/s
Channel(s) : 2 channels
Sampling rate : 48.0 kHz
Compression mode : Lossy
Stream size : 42.1 MiB (8%)
Alignment : Aligned on interleaves
Writing library : LAME3.99r
Encoding settings : -m j -V 4 -q 2 -lowpass 17 -b 128

скриншот  скриншот  скриншот  

pb.wtf



Скачать Хороший коп через торрент https://i100.fastpic.ru/big/2018/0907/bf/287c8ee3ba01d6ff9d2a63d210ea71bf.png Скачать фильм Хороший коп через торрент бесплантно в хорошем качестве Описание: Тони-старший — не самый честный бывший нью-йоркский полицейский, не привыкший следовать правилам. Они живёт со своим сыном — ... 5 10 1
Торрент: Зарегистрирован [2018-10-25 15:37] · скачан: 22 раз
Статус: √ проверено
Размер: 5.37 GB
Как cкачать? Как скачать Хороший коп через торрент | qTorrent

% Раздел Тема Автор DL S | L
Зарубежные сериалы [ 72.75 GB ] Хороший коп / The Good Cop / Сезон: 1 / Серии: 1-10 из 10 [2018 UHD BDRip 2160p] MVO [BaibaKo] bober100 Скачать
1 | 0

28-11-2019 20:33  

Отключить всю рекламу на сайте

25-10-2018 15:39 Хороший коп Скачать торрент  

сериал понравился, рекомендую к просмотру pb.wtf



    Дорогой пользователь! Огромная просьба, поблагодарите релизера, оцените раздачу и оставьте свои комментарий, если Вы скачали Хороший коп через торрент бесплатно! Внесите свою лепту в развитие PiratBit!
    Комментировать посты могут только пользователи прошедшие не сложную регистрацию
    Показать сообщения:    

    Хороший коп через торрент
    Скачать бесплатно Хороший коп
    Хороший коп скачать торрент
    Хороший коп смотреть онлайн
    Cкачать фильм Хороший коп бесплатно
    Хороший коп скачать торрент в хорошем качестве
    Хороший коп смотреть онлайн бесплатно в хорошем качестве


    Вы не можете начинать темы
    Вы не можете отвечать на сообщения
    Вы не можете редактировать свои сообщения
    Вы не можете удалять свои сообщения
    Вы не можете голосовать в опросах
    Вы не можете прикреплять файлы к сообщениям
    Вы можете скачивать файлы