Ссылка на приватное зеркало нашего сайта всего за 1$. Внимание количество ограничено!!!

2 сезон

iTunes

1 сезон

1

2 сезон

2 сезон

iTunes

1 сезон

RePack

30

Ultimate

ВАЖНО

ИГРА 18+

pack

RePack

MK11
pack

Забери бонус

RePack

jed

!!Акция!!

Alien_Rage

RePack

fifa19

RePack

Assassins Creed: Odyssey

RePack

NEED FOR SPEED™ PAYBACK

4 сезон

9 сезон

Бесстыжие 9 сезон

Все сериалы

все сериалы на PB.wtf

RePack

FAR CRY 5
  

Призраки дома на холме / The Haunting of Hill House / Сезон: 1 / Серии: 1-10 из 10 (Майк Флэнеган) [2018, драма, ужасы, WEB-DL 720p] [MVO] (AlexFilm) pb.wtf

Призраки дома на холме через торрент pb.wtf

Размер: 7.43 GB | Добавлен: 1 год 11 мес. назад | Торрент скачан:127 раз
Скачать  

25-10-2018 16:58 Призраки дома на холме Скачать торрент  


Призраки дома на холме / The Haunting of Hill House

Год выпуска: 2018
Страна: США
Жанр: ужасы, драма
Продолжительность: ~00:50:00
Перевод: Профессиональный (многоголосый закадровый) (AlexFilm)
Режиссер: Майк Флэнеган

В ролях: Маккенна Грэйс, Карла Гуджино, Микил Хаусмен, Тимоти Хаттон, Генри Томас, Лулу Уилсон, Оливер Джексон-Коэн, Элизабет Ризер, Кейт Сигел, Саманта Слойан, Роберт Лонгстрит, Джеймс Лэфферти, Катрин Паркер, Элизабет Бечка, Джордана Кристи, Энтони Руйвивар, Кэти Карпентер, Анна Энгер, Джеймс Флэнеган, Эрианн Мартин, Дэвид Моретти.
Описание: История семьи, которая долгое время жила в доме, населённом призраками. Годы спустя трагедия заставляет их вернуться в тот дом и встретиться лицом к лицу со злом, обитающим в его стенах.
Релиз:

Перевод: Леонид Дмитриев
Монтаж и сведение звука: Михаил Федосеев
Роли озвучивали:
    • Татьяна Манетина
    • Екатерина Муравицкая
    • Алёна Левичева
    • Константин Федосеев
    • Кирилл Патрино
    • Михаил Федосеев

Сэмпл: http://sendfile.su/1450075

Качество: WEB-DL 720p
Формат: MKV
Видео: 1280х640, 23.976 fps, MPEG-4 AVC ~1000 kbps avg, 0.052 bit/pixel
Аудио Rus: 48 kHz, AC3 Dolby Digital, 3/2 (L,C,R,l,r) + LFE ch, ~384.00 kbps
Аудио Eng: 48 kHz, AC3 Dolby Digital, 3/2 (L,C,R,l,r) + LFE ch, ~384.00 kbps
Субтитры: English, Swedish, Italian, Polish, Brazilian Portuguese, Finnish, French, Norwegian, Danish, European Spanish, Spanish, German
скриншот  скриншот  скриншот  
Формат : Matroska
Версия формата : Version 4 / Version 2
Размер файла : 770 Мбайт
Продолжительность : 1 ч. 0 м.
Общий поток : 1790 Кбит/сек
Название фильма : The Haunting of Hill House 1x01 @ AlexFilm
Дата кодирования : UTC 2018-10-21 15:31:47
Программа кодирования : mkvmerge v7.9.0 ('Birds') 64bit
Библиотека кодирования : libebml v1.3.1 + libmatroska v1.4.2

Видео
Идентификатор : 1
Формат : AVC
Формат/Информация : Advanced Video Codec
Профиль формата : High@L4.1
Параметр CABAC формата : Да
Параметр ReFrames формата : 5 кадров
Идентификатор кодека : V_MPEG4/ISO/AVC
Продолжительность : 1 ч. 0 м.
Битрейт : 1019 Кбит/сек
Ширина : 1280 пикселей
Высота : 640 пикселей
Соотношение сторон : 2,000
Режим частоты кадров : Постоянный
Частота кадров : 23,976 (24000/1001) кадра/сек
Цветовое пространство : YUV
Субдискретизация насыщенности : 4:2:0
Битовая глубина : 8 бит
Тип развёртки : Прогрессивная
Бит/(Пиксели*Кадры) : 0.052
Размер потока : 438 Мбайт (57%)
Библиотека кодирования : x264 core 157 r2932 303c484
Настройки программы : cabac=1 / ref=5 / deblock=1:-3:-3 / analyse=0x3:0x113 / me=hex / subme=8 / psy=1 / psy_rd=1.00:0.00 / mixed_ref=1 / me_range=16 / chroma_me=1 / trellis=2 / 8x8dct=1 / cqm=0 / deadzone=21,11 / fast_pskip=1 / chroma_qp_offset=-2 / threads=20 / lookahead_threads=3 / sliced_threads=0 / nr=0 / decimate=1 / interlaced=0 / bluray_compat=0 / constrained_intra=0 / bframes=3 / b_pyramid=2 / b_adapt=1 / b_bias=0 / direct=3 / weightb=1 / open_gop=0 / weightp=2 / keyint=250 / keyint_min=23 / scenecut=40 / intra_refresh=0 / rc_lookahead=50 / rc=crf / mbtree=1 / crf=18.0 / qcomp=0.60 / qpmin=0 / qpmax=69 / qpstep=4 / ip_ratio=1.40 / aq=3:0.80
Default : Да
Forced : Нет

Аудио #1
Идентификатор : 2
Формат : AC-3
Формат/Информация : Audio Coding 3
Расширение режима : CM (complete main)
Параметр Endianness формата : Big
Идентификатор кодека : A_AC3
Продолжительность : 1 ч. 0 м.
Вид битрейта : Постоянный
Битрейт : 384 Кбит/сек
Каналы : 6 каналов
Расположение каналов : Front: L C R, Side: L R, LFE
Частота : 48,0 КГц
Частота кадров : 31,250 кадров/сек (1536 spf)
Метод сжатия : С потерями
Размер потока : 165 Мбайт (21%)
Заголовок : DD5.1 AlexFilm
Язык : Russian
Default : Да
Forced : Нет

Аудио #2
Идентификатор : 3
Формат : AC-3
Формат/Информация : Audio Coding 3
Расширение режима : CM (complete main)
Параметр Endianness формата : Big
Идентификатор кодека : A_AC3
Продолжительность : 1 ч. 0 м.
Вид битрейта : Постоянный
Битрейт : 384 Кбит/сек
Каналы : 6 каналов
Расположение каналов : Front: L C R, Side: L R, LFE
Частота : 48,0 КГц
Частота кадров : 31,250 кадров/сек (1536 spf)
Метод сжатия : С потерями
Размер потока : 165 Мбайт (21%)
Заголовок : DD5.1 Original
Язык : English
Default : Нет
Forced : Нет

Текст #1
Идентификатор : 4
Формат : UTF-8
Идентификатор кодека : S_TEXT/UTF8
Идентификатор кодека/Информация : UTF-8 Plain Text
Продолжительность : 58 м. 7 с.
Битрейт : 55 бит/сек
Count of elements : 818
Размер потока : 23,6 Кбайт (0%)
Заголовок : English
Язык : English
Default : Нет
Forced : Нет

Текст #2
Идентификатор : 5
Формат : UTF-8
Идентификатор кодека : S_TEXT/UTF8
Идентификатор кодека/Информация : UTF-8 Plain Text
Продолжительность : 58 м. 20 с.
Битрейт : 50 бит/сек
Count of elements : 815
Размер потока : 21,6 Кбайт (0%)
Заголовок : Swedish
Язык : Swedish
Default : Нет
Forced : Нет

Текст #3
Идентификатор : 6
Формат : UTF-8
Идентификатор кодека : S_TEXT/UTF8
Идентификатор кодека/Информация : UTF-8 Plain Text
Продолжительность : 58 м. 19 с.
Битрейт : 52 бит/сек
Count of elements : 749
Размер потока : 22,5 Кбайт (0%)
Заголовок : Italian
Язык : Italian
Default : Нет
Forced : Нет

Текст #4
Идентификатор : 7
Формат : UTF-8
Идентификатор кодека : S_TEXT/UTF8
Идентификатор кодека/Информация : UTF-8 Plain Text
Продолжительность : 59 м. 17 с.
Битрейт : 43 бит/сек
Count of elements : 772
Размер потока : 18,8 Кбайт (0%)
Заголовок : Polish
Язык : Polish
Default : Нет
Forced : Нет

Текст #5
Идентификатор : 8
Формат : UTF-8
Идентификатор кодека : S_TEXT/UTF8
Идентификатор кодека/Информация : UTF-8 Plain Text
Продолжительность : 58 м. 19 с.
Битрейт : 50 бит/сек
Count of elements : 764
Размер потока : 21,7 Кбайт (0%)
Заголовок : Brazilian Portuguese
Язык : Portuguese
Default : Нет
Forced : Нет

Текст #6
Идентификатор : 9
Формат : UTF-8
Идентификатор кодека : S_TEXT/UTF8
Идентификатор кодека/Информация : UTF-8 Plain Text
Продолжительность : 59 м. 17 с.
Битрейт : 45 бит/сек
Count of elements : 682
Размер потока : 19,9 Кбайт (0%)
Заголовок : Finnish
Язык : Finnish
Default : Нет
Forced : Нет

Текст #7
Идентификатор : 10
Формат : UTF-8
Идентификатор кодека : S_TEXT/UTF8
Идентификатор кодека/Информация : UTF-8 Plain Text
Продолжительность : 58 м. 19 с.
Битрейт : 46 бит/сек
Count of elements : 753
Размер потока : 20,1 Кбайт (0%)
Заголовок : French
Язык : French
Default : Нет
Forced : Нет

Текст #8
Идентификатор : 11
Формат : UTF-8
Идентификатор кодека : S_TEXT/UTF8
Идентификатор кодека/Информация : UTF-8 Plain Text
Продолжительность : 58 м. 53 с.
Битрейт : 43 бит/сек
Count of elements : 787
Размер потока : 18,6 Кбайт (0%)
Заголовок : Norwegian
Язык : Norwegian
Default : Нет
Forced : Нет

Текст #9
Идентификатор : 12
Формат : UTF-8
Идентификатор кодека : S_TEXT/UTF8
Идентификатор кодека/Информация : UTF-8 Plain Text
Продолжительность : 58 м. 20 с.
Битрейт : 45 бит/сек
Count of elements : 798
Размер потока : 19,4 Кбайт (0%)
Заголовок : Danish
Язык : Danish
Default : Нет
Forced : Нет

Текст #10
Идентификатор : 13
Формат : UTF-8
Идентификатор кодека : S_TEXT/UTF8
Идентификатор кодека/Информация : UTF-8 Plain Text
Продолжительность : 58 м. 18 с.
Битрейт : 49 бит/сек
Count of elements : 749
Размер потока : 21,2 Кбайт (0%)
Заголовок : European Spanish
Язык : Spanish
Default : Нет
Forced : Нет

Текст #11
Идентификатор : 14
Формат : UTF-8
Идентификатор кодека : S_TEXT/UTF8
Идентификатор кодека/Информация : UTF-8 Plain Text
Продолжительность : 58 м. 19 с.
Битрейт : 48 бит/сек
Count of elements : 739
Размер потока : 20,9 Кбайт (0%)
Заголовок : Spanish
Язык : Spanish
Default : Нет
Forced : Нет

Текст #12
Идентификатор : 15
Формат : UTF-8
Идентификатор кодека : S_TEXT/UTF8
Идентификатор кодека/Информация : UTF-8 Plain Text
Продолжительность : 58 м. 20 с.
Битрейт : 47 бит/сек
Count of elements : 821
Размер потока : 20,5 Кбайт (0%)
Заголовок : German
Язык : German
Default : Нет
Forced : Нет
Внимание! Раздача ведётся путём добавления новых серий; при каждом добавлении создаётся новый торрент. Чтобы начать докачку новой серии, пользователям необходимо сделать следующее:
(1) остановить скачивание,
(2) удалить старый торрент у себя из клиента (старые серии удалять не надо),
(3) скачать новый торрент и запустить его у себя в клиенте вместо старого, при этом указать клиенту путь в старую папку куда и должно происходить скачивание новых серий.
Ваш клиент при этом должен произвести хеширование (проверку) старой папки (если не производит сам - помогите ему сделать это), и будет докачивать только те серии которых у вас ещё нет. Старые серии при этом не удаляются, а продолжают раздаваться!
Eсли вы уже удалили старые серии, то предотвратить повторную закачку старых серий можно, отжав галочку в соответствующих местах при запуске нового торрента. По возможности, желательно не удалять старые серии как можно дольше чтобы релизёр не столько продолжал раздавать старые серии, а смог сконцентрироваться на новых.
pb.wtf



Скачать Призраки дома на холме через торрент http://i93.fastpic.ru/big/2018/1021/d0/f5a523736a399a832d5cd341d1dfacd0.jpg Скачать фильм Призраки дома на холме через торрент бесплантно в хорошем качестве Описание: История семьи, которая долгое время жила в доме, населённом призраками. Годы спустя трагедия заставляет их вернуться в тот дом и ... 9.5 10 6
Торрент: Зарегистрирован [2018-11-26 07:52] · скачан: 127 раз
Статус: √ проверено
Размер: 7.43 GB
Как cкачать? Как скачать Призраки дома на холме через торрент | qTorrent

% Раздел Тема Автор DL S | L
Зарубежные сериалы [ 6.91 GB ] Призраки дома на холме / The Haunting of Hill House / Сезон: 1 / Серии: 1-10 из 10 [2018 WEB-DLRip] MVO [NewStudio] bober100 Скачать
7 | 0
Зарубежные сериалы [ 7.44 GB ] Призраки дома на холме / The Haunting of Hill House / Сезон: 1 / Серии: 1-10 из 10 [2018 WEB-DLRip] [MVO] killermax2013 Скачать
1 | 0
Зарубежные сериалы [ 6.91 GB ] Призраки дома на холме / The Haunting of Hill House / Сезон: 1 / Серии: 1-10 из 10 [2018 WEB-DLRip] MVO [LostFilm] bober100 Скачать
1 | 0
Зарубежные сериалы [ 27.73 GB ] Призраки дома на холме / The Haunting of Hill House / Сезон: 1 / Серии: 1-10 из 10 [2018 WEBRip 1080p] MVO [NewStudio] bober100 Скачать
1 | 0
Зарубежные сериалы [ 11.93 GB ] Призраки дома на холме / The Haunting of Hill House / Сезон: 1 / Серии: 1-10 из 10 [2018 WEB-DL 1080p] [MVO] killermax2013 Скачать
1 | 0
Зарубежные сериалы [ 12.98 GB ] Призраки дома на холме / The Haunting of Hill House / Сезон: 1 / Серии: 1-10 из 10 [2018 WEB-DL 1080p] MVO [АРК-ТВ Studio & VSI International] bober100 Скачать
1 | 0
Зарубежные сериалы [ 9.2 GB ] Призраки дома на холме / The Haunting of Hill House / Сезон: 1 / Серии: 1-10 из 10 [2018 WEB-DL 720p] [DVO] killermax2013 Скачать
2 | 0


Последний раз редактировалось: killermax2013 (2018-11-26 07:52), всего редактировалось 2 раз(а)

28-11-2019 20:33  

Отключить всю рекламу на сайте

14-11-2018 14:16 Призраки дома на холме Скачать торрент  

когда будут остальные?pb.wtf



14-11-2018 14:21 Призраки дома на холме Скачать торрент  

Дмитрий73 писал(а):

когда будут остальные?

сразу как алексы переведутpb.wtf



25-11-2018 17:58 Призраки дома на холме Скачать торрент  

pb.wtf



    Дорогой пользователь! Огромная просьба, поблагодарите релизера, оцените раздачу и оставьте свои комментарий, если Вы скачали Призраки дома на холме через торрент бесплатно! Внесите свою лепту в развитие PiratBit!
    Комментировать посты могут только пользователи прошедшие не сложную регистрацию
    Показать сообщения:    

    Призраки дома на холме через торрент
    Скачать бесплатно Призраки дома на холме
    Призраки дома на холме скачать торрент
    Призраки дома на холме смотреть онлайн
    Cкачать фильм Призраки дома на холме бесплатно
    Призраки дома на холме скачать торрент в хорошем качестве
    Призраки дома на холме смотреть онлайн бесплатно в хорошем качестве


    Вы не можете начинать темы
    Вы не можете отвечать на сообщения
    Вы не можете редактировать свои сообщения
    Вы не можете удалять свои сообщения
    Вы не можете голосовать в опросах
    Вы не можете прикреплять файлы к сообщениям
    Вы можете скачивать файлы