Ссылка на приватное зеркало всего за 1$. Внимание количество ограничено!!!

OK

1+1

iTunes

мы

OK

1

WEB-DLRip

Джокер

Пифагор

Ведьмак / The Witcher сериал

iTunes

ПШазам

ОК

Оно 2

iTunes

30
pack

Вам бонус

ВАЖНО

!!Акция!!

Alien_RageХит недели

RePack

Resident Evil 21

ИГРА 18+

pack

RePack

jed

RePack

fifa19

RePack

Assassins Creed: Odyssey

RePack

NEED FOR SPEED™ PAYBACK

4 сезон

9 сезон

Бесстыжие 9 сезон

Все сериалы

все сериалы на PB.wtf

RePack

FAR CRY 5
  

Наследники / Los Herederos (Хорхе Эрнандес Альдана) [2015, драма, WEB-DL 720p] MVO ["Синема УС"] pb.wtf

Наследники через торрент pb.wtf

Размер: 2.57 GB | Добавлен: 1 год 3 мес. назад | Торрент скачан:19 раз
Скачать  

25-10-2018 17:06 Наследники Скачать торрент  

Наследники / Los HerederosГод выпуска: 2015
Страна: Мексика
Жанр: драма
Продолжительность: 01:12:09
Перевод: Любительский (многоголосый) | "Синема УС"
Субтитры: отсутствуют

Режиссер: Хорхе Эрнандес Альдана

rating

В ролях:

Максимо Холландер, Себастьян Агирре, Урсула Прунеда

Описание:

Досуг подростков в самом разгаре: группа друзей проводит свой отпуск на вечеринках, занимается сексом, пьяницей и участвует в любом приключении, которое приносит им дополнительный адреналин. Поскольку они используют насилие для развлечения и для исполнения своих авторитарных фантазий, их приключения покажут трещины и крах идеального мира, в котором они живут.

Качество: WEB-DL 720p
Формат: MKV

Видео: h.264, 4 708 Кбит/с, 1280x536
Аудио#1: Русский, (AC3, 2 ch, 384 Кбит/с)
скриншот  скриншот  скриншот  

Общее
Уникальный идентификатор : 183257250840567030282778477530506147364 (0x89DE100C951C14F590816EAC51593624)
Полное имя : D:\Los.Herederos.2015.P.WEB-DL.72Op.mkv
Формат : Matroska
Версия формата : Version 2
Размер файла : 2,57 Гбайт
Продолжительность : 1 ч. 12 м.
Режим общего битрейта : Переменный
Общий поток : 5094 Кбит/сек
Дата кодирования : UTC 2018-10-24 20:36:02
Программа кодирования : mkvmerge v8.3.0 ('Over the Horizon') 64bit
Библиотека кодирования : libebml v1.3.1 + libmatroska v1.4.2

Видео
Идентификатор : 1
Формат : AVC
Формат/Информация : Advanced Video Codec
Профиль формата : High@L4.1
Параметр CABAC формата : Да
Параметр RefFrames формата : 4 кадра
Идентификатор кодека : V_MPEG4/ISO/AVC
Продолжительность : 1 ч. 12 м.
Вид битрейта : Переменный
Битрейт : 4708 Кбит/сек
Максимальный битрейт : 5500 Кбит/сек
Ширина : 1280 пикселей
Высота : 536 пикселей
Соотношение сторон : 2,40:1
Режим частоты кадров : Постоянный
Частота кадров : 23,976 (24000/1001) кадра/сек
Стандарт вещания : Component
Цветовое пространство : YUV
Субдискретизация насыщенности : 4:2:0
Битовая глубина : 8 бит
Тип развёртки : Прогрессивная
Бит/(Пиксели*Кадры) : 0.280
Размер потока : 2,32 Гбайт (90%)
Default : Да
Forced : Нет
Цветовой диапазон : Limited
Основные цвета : BT.709
Характеристики трансфера : BT.709
Коэффициенты матрицы : BT.709

Аудио
Идентификатор : 2
Формат : AC-3
Формат/Информация : Audio Coding 3
Расширение режима : CM (complete main)
Параметр Endianness формата : Big
Идентификатор кодека : A_AC3
Продолжительность : 1 ч. 12 м.
Вид битрейта : Постоянный
Битрейт : 384 Кбит/сек
Каналы : 2 канала
Расположение каналов : Front: L R
Частота : 48,0 КГц
Частота кадров : 31,250 кадров/сек (1536 spf)
Метод сжатия : С потерями
Размер потока : 198 Мбайт (8%)
Default : Да
Forced : Нет

pb.wtf



Скачать Наследники через торрент https://b.radikal.ru/b03/1810/26/9a6f7140cc48.jpg Скачать фильм Наследники через торрент бесплантно в хорошем качестве Описание: Досуг подростков в самом разгаре: группа друзей проводит свой отпуск на вечеринках, занимается сексом, пьяницей и участвует в ... 10 10 3
Торрент: Зарегистрирован [2018-10-25 17:06] · скачан: 19 раз
Статус: T временная
Размер: 2.57 GB
Как cкачать? Как скачать Наследники через торрент | qTorrent

% Раздел Тема Автор DL S | L
T Фильмы (мультфильмы) cо спонсором показа (Новинки AVI/MKV) [ 1.37 GB ] Наследники / Los Herederos [2015 WEB-DLRip] MVO ["Синема УС"] bober100 Скачать
2 | 0

28-11-2019 20:33  

Отключить всю рекламу на сайте

    Дорогой пользователь! Огромная просьба, поблагодарите релизера, оцените раздачу и оставьте свои комментарий, если Вы скачали Наследники через торрент бесплатно! Внесите свою лепту в развитие PiratBit!
    Комментировать посты могут только пользователи прошедшие не сложную регистрацию
    Показать сообщения:    

    Наследники через торрент
    Скачать бесплатно Наследники
    Наследники скачать торрент
    Наследники смотреть онлайн
    Cкачать фильм Наследники бесплатно
    Наследники скачать торрент в хорошем качестве
    Наследники смотреть онлайн бесплатно в хорошем качестве


    Вы не можете начинать темы
    Вы не можете отвечать на сообщения
    Вы не можете редактировать свои сообщения
    Вы не можете удалять свои сообщения
    Вы не можете голосовать в опросах
    Вы не можете прикреплять файлы к сообщениям
    Вы можете скачивать файлы