Ссылка на приватное зеркало всего за 1$. Внимание количество ограничено!!!

iTunes

1+1

iTunes

мы

WEB-DL

1

iTunes

Чернобыль

iTunes

Ральф против интернета

Лицензия

ПШазам

Лицензия

Оно 2

Лицензия

30
pack

Вам бонус

ВАЖНО

!!Акция!!

Alien_RageХит недели

RePack

Resident Evil 21

ИГРА 18+

pack

RePack

jed

!!Акция!!

Alien_Rage

RePack

fifa19

RePack

Assassins Creed: Odyssey

RePack

NEED FOR SPEED™ PAYBACK

3 сезон

9 сезон

Бесстыжие 9 сезон

Все сериалы

все сериалы на PB.wtf

RePack

FAR CRY 5
Ребята, катастрофически не хватает 1900р. для оплаты серверов за Октябрь (всвязи с блокировками трафик упал в 3 раза), 1-2р., выручайте.
  

Тёмные отражения / The Darkest Minds (Дженнифер Ю) [2018, фантастика, триллер, BDRip-AVC] DUB (rus, ukr) [iTunes] pb.wtf

Тёмные отражения через торрент pb.wtf

Размер: 2.04 GB | Добавлен: 1 год 1 мес. назад | Торрент скачан:284 раза
Скачать  

26-10-2018 04:17 Тёмные отражения Скачать торрент  

Тёмные отражения / The Darkest Minds«Если ты один из нас, ты сможешь найти нас»
Год выпуска: 2018
Страна: США
Жанр: фантастика, триллер
Продолжительность: 01:44:47
Перевод: Дублированный | iTunes
Субтитры: Русские (форс., полные), Украинские (форс., полные), Английские (полные, SDH)

Режиссер: Дженнифер Ю

rating

В ролях:

Брэдли Уитфорд, Мэнди Мур, Амандла Стенберг, Гвендолин Кристи, Харрис Дикинсон, Марк О Брайэн, Уоллес Лэнгэм, Патрик Гибсон, Уэйд Уильямс, Голден Брукс

Описание:

После того, как неизвестная болезнь убивает 98% американских детей, 2% выживших, у которых обнаруживаются суперспособности, отправляют в специальные лагеря. 16-летняя девушка сбегает из такого лагеря и присоединяется к группе других подростков, которые скрываются от правительства.

Качество: BDRip-AVC
Формат: MKV

Видео: 1024x428 (2.40:1), 23,976 fps, x264 ~1 812 kbps avg, 0.172 bit/pixel
Аудио#1: 48 kHz, AC3 Dolby Digital, 3/2 (L,C,R,l,r) + LFE ch, ~384.00 kbps avg | RUS (iTunes)
Аудио#2: 48 kHz, AC3 Dolby Digital, 2 (L,R) ch, ~160.00 kbps avg | UKR (iTunes)
Аудио#3: 48 kHz, AC3 Dolby Digital, 3/2 (L,C,R,l,r) + LFE ch, ~384.00 kbps avg | ENG
скриншот  скриншот  скриншот  скриншот  скриншот  

Общее
Уникальный идентификатор : 137830432407372650422865081690008204040 (0x67B12CFAD06B2F93D72E372EAFBA3308)
Полное имя : F:\OlLanDGroup\The.Darkest.Minds.2018.BDRip(AVC).OlLanDGroup.mkv
Формат : Matroska
Версия формата : Version 4 / Version 2
Размер файла : 2,04 Гбайт
Продолжительность : 1 ч. 43 м.
Общий поток : 2807 Кбит/сек
Название фильма : The.Darkest.Minds.2018 #TorpedoUK#
Дата кодирования : UTC 2018-10-26 02:11:47
Программа кодирования : mkvmerge v25.0.0 ('Prog Noir') 64-bit
Библиотека кодирования : libebml v1.3.6 + libmatroska v1.4.9

Видео
Идентификатор : 1
Формат : AVC
Формат/Информация : Advanced Video Codec
Профиль формата : High@L4.1
Параметр CABAC формата : Да
Параметр ReFrames формата : 10 кадров
Идентификатор кодека : V_MPEG4/ISO/AVC
Продолжительность : 1 ч. 43 м.
Битрейт : 1812 Кбит/сек
Ширина : 1024 пикселя
Высота : 428 пикселей
Соотношение сторон : 2,40:1
Режим частоты кадров : Постоянный
Частота кадров : 23,976 (24000/1001) кадра/сек
Цветовое пространство : YUV
Субдискретизация насыщенности : 4:2:0
Битовая глубина : 8 бит
Тип развёртки : Прогрессивная
Бит/(Пиксели*Кадры) : 0.172
Размер потока : 1,31 Гбайт (65%)
Библиотека кодирования : x264 core 146 r2538 121396c
Настройки программы : cabac=1 / ref=10 / deblock=1:-3:-3 / analyse=0x3:0x113 / me=umh / subme=11 / psy=1 / psy_rd=0.97:0.05 / mixed_ref=1 / me_range=48 / chroma_me=1 / trellis=2 / 8x8dct=1 / cqm=0 / deadzone=21,11 / fast_pskip=1 / chroma_qp_offset=-3 / threads=6 / lookahead_threads=1 / sliced_threads=0 / nr=0 / decimate=1 / interlaced=0 / bluray_compat=0 / constrained_intra=0 / bframes=10 / b_pyramid=2 / b_adapt=2 / b_bias=0 / direct=3 / weightb=1 / open_gop=0 / weightp=2 / keyint=240 / keyint_min=23 / scenecut=40 / intra_refresh=0 / rc_lookahead=40 / rc=2pass / mbtree=0 / bitrate=1812 / ratetol=1.0 / qcomp=0.60 / qpmin=0 / qpmax=69 / qpstep=4 / cplxblur=20.0 / qblur=0.5 / vbv_maxrate=50000 / vbv_bufsize=62500 / nal_hrd=none / filler=0 / ip_ratio=1.40 / pb_ratio=1.30 / aq=1:1.00
Язык : English
Default : Да
Forced : Нет

Аудио #1
Идентификатор : 2
Формат : AC-3
Формат/Информация : Audio Coding 3
Расширение режима : CM (complete main)
Параметр Endianness формата : Big
Идентификатор кодека : A_AC3
Продолжительность : 1 ч. 43 м.
Вид битрейта : Постоянный
Битрейт : 384 Кбит/сек
Каналы : 6 каналов
Расположение каналов : Front: L C R, Side: L R, LFE
Частота : 48,0 КГц
Частота кадров : 31,250 кадров/сек (1536 spf)
Битовая глубина : 16 бит
Метод сжатия : С потерями
Размер потока : 285 Мбайт (14%)
Заголовок : DUB [iTunes]
Язык : Russian
Default : Да
Forced : Нет

Аудио #2
Идентификатор : 3
Формат : AC-3
Формат/Информация : Audio Coding 3
Расширение режима : CM (complete main)
Параметр Endianness формата : Big
Идентификатор кодека : A_AC3
Продолжительность : 1 ч. 43 м.
Вид битрейта : Постоянный
Битрейт : 160 Кбит/сек
Каналы : 2 канала
Расположение каналов : Front: L R
Частота : 48,0 КГц
Частота кадров : 31,250 кадров/сек (1536 spf)
Битовая глубина : 16 бит
Метод сжатия : С потерями
Размер потока : 119 Мбайт (6%)
Заголовок : DUB [iTunes]
Язык : Ukrainian
Default : Нет
Forced : Нет

Аудио #3
Идентификатор : 4
Формат : AC-3
Формат/Информация : Audio Coding 3
Расширение режима : CM (complete main)
Параметр Endianness формата : Big
Идентификатор кодека : A_AC3
Продолжительность : 1 ч. 43 м.
Вид битрейта : Постоянный
Битрейт : 448 Кбит/сек
Каналы : 6 каналов
Расположение каналов : Front: L C R, Side: L R, LFE
Частота : 48,0 КГц
Частота кадров : 31,250 кадров/сек (1536 spf)
Битовая глубина : 16 бит
Метод сжатия : С потерями
Размер потока : 333 Мбайт (16%)
Заголовок : [Original]
Язык : English
Default : Нет
Forced : Нет

Текст #1
Идентификатор : 5
Формат : UTF-8
Идентификатор кодека : S_TEXT/UTF8
Идентификатор кодека/Информация : UTF-8 Plain Text
Продолжительность : 1 ч. 40 м.
Битрейт : 0 бит/сек
Count of elements : 14
Размер потока : 512 байт (0%)
Заголовок : Forced
Язык : Russian
Default : Да
Forced : Нет

Текст #2
Идентификатор : 6
Формат : UTF-8
Идентификатор кодека : S_TEXT/UTF8
Идентификатор кодека/Информация : UTF-8 Plain Text
Продолжительность : 1 ч. 42 м.
Битрейт : 74 бит/сек
Count of elements : 1288
Размер потока : 56,0 Кбайт (0%)
Заголовок : Full
Язык : Russian
Default : Нет
Forced : Нет

Текст #3
Идентификатор : 7
Формат : UTF-8
Идентификатор кодека : S_TEXT/UTF8
Идентификатор кодека/Информация : UTF-8 Plain Text
Продолжительность : 1 ч. 40 м.
Битрейт : 0 бит/сек
Count of elements : 6
Размер потока : 384 байт (0%)
Заголовок : Forced
Язык : Ukrainian
Default : Нет
Forced : Нет

Текст #4
Идентификатор : 8
Формат : UTF-8
Идентификатор кодека : S_TEXT/UTF8
Идентификатор кодека/Информация : UTF-8 Plain Text
Продолжительность : 1 ч. 42 м.
Битрейт : 73 бит/сек
Count of elements : 1291
Размер потока : 55,0 Кбайт (0%)
Заголовок : Full
Язык : Ukrainian
Default : Нет
Forced : Нет

Текст #5
Идентификатор : 9
Формат : UTF-8
Идентификатор кодека : S_TEXT/UTF8
Идентификатор кодека/Информация : UTF-8 Plain Text
Продолжительность : 1 ч. 42 м.
Битрейт : 49 бит/сек
Count of elements : 1373
Размер потока : 37,2 Кбайт (0%)
Заголовок : Full
Язык : English
Default : Нет
Forced : Нет

Текст #6
Идентификатор : 10
Формат : UTF-8
Идентификатор кодека : S_TEXT/UTF8
Идентификатор кодека/Информация : UTF-8 Plain Text
Продолжительность : 1 ч. 42 м.
Битрейт : 55 бит/сек
Count of elements : 1527
Размер потока : 41,7 Кбайт (0%)
Заголовок : SDH
Язык : English
Default : Нет
Forced : Нет

Меню
00:00:00.000 : :00:00:00.000
00:03:53.358 : :00:03:53.358
00:09:40.038 : :00:09:40.038
00:14:33.748 : :00:14:33.748
00:19:26.957 : :00:19:26.957
00:23:35.539 : :00:23:35.539
00:26:24.166 : :00:26:24.166
00:30:50.932 : :00:30:50.932
00:35:35.342 : :00:35:35.342
00:41:21.562 : :00:41:21.562
00:47:22.923 : :00:47:22.923
00:51:48.314 : :00:51:48.314
00:55:55.227 : :00:55:55.227
00:59:32.819 : :00:59:32.819
01:03:33.685 : :01:03:33.685
01:08:40.616 : :01:08:40.616
01:12:14.247 : :01:12:14.247
01:14:11.447 : :01:14:11.447
01:18:01.802 : :01:18:01.802
01:20:54.516 : :01:20:54.516
01:23:28.003 : :01:23:28.003
01:26:56.878 : :01:26:56.878
01:29:24.985 : :01:29:24.985
01:37:59.957 : :01:37:59.957

pb.wtf



Скачать Тёмные отражения через торрент http://i94.fastpic.ru/big/2018/1026/bf/e6b9b937f82ce51a3a8be57cc47c18bf.jpg Скачать фильм Тёмные отражения через торрент бесплантно в хорошем качестве Описание: После того, как неизвестная болезнь убивает 98% американских детей, 2% выживших, у которых обнаруживаются суперспособности, ... 10 10 7
Торрент: Зарегистрирован [2018-10-26 04:17] · скачан: 284 раз
Статус: √ проверено
Размер: 2.04 GB
Как cкачать? Как скачать Тёмные отражения через торрент | qTorrent

% Раздел Тема Автор DL S | L
Ultra HD (UHD: 2K, 4K, 8K) — видео сверхвысокой чёткости [ 18.16 GB ] Тёмные отражения / The Darkest Minds [2018 UHD BDRip 2160p] [SDR] DUB [] sheker187 Скачать
1 | 0
Ultra HD (UHD: 2K, 4K, 8K) — видео сверхвысокой чёткости [ 9.22 GB ] Тёмные отражения / The Darkest Minds [2018 UHD BDRip 2160p] DUB [] sheker187 Скачать
3 | 0
Фильмы 2018 [DVDrip, WEB-DLRip, HDrip] (DUB, MVO) [ 749 MB ] Тёмные отражения / The Darkest Minds [2018 HDRip] DUB [ BD EUR] bober100 Скачать
1 | 0
Ultra HD (UHD: 2K, 4K, 8K) — видео сверхвысокой чёткости [ 50.06 GB ] Тёмные отражения / The Darkest Minds [2018 UHD BDRemux 2160p] DUB [] bober100 Скачать
1 | 0
Фильмы 2018 [DVDrip, WEB-DLRip, HDrip] (DUB, MVO) [ 1.97 GB ] Тёмные отражения / The Darkest Minds [2018 BDRip-AVC] DUB [] bober100 Скачать
1 | 0
Фильмы (Blu-ray, BD-Remux, HDDVD) [ 24.66 GB ] Тёмные отражения / The Darkest Minds [2018 BD Remux 1080p] DUB [] bober100 Скачать
1 | 0
Фильмы 2018 [DVDrip, WEB-DLRip, HDrip] (DUB, MVO) [ 1.46 GB ] Тёмные отражения / The Darkest Minds [2018 BDRip] DUB [ BD EUR] bober100 Скачать
1 | 0

28-11-2019 20:33  

Отключить всю рекламу на сайте

    Дорогой пользователь! Огромная просьба, поблагодарите релизера, оцените раздачу и оставьте свои комментарий, если Вы скачали Тёмные отражения через торрент бесплатно! Внесите свою лепту в развитие PiratBit!
    Комментировать посты могут только пользователи прошедшие не сложную регистрацию
    Показать сообщения:    

    Тёмные отражения через торрент
    Скачать бесплатно Тёмные отражения
    Тёмные отражения скачать торрент
    Тёмные отражения смотреть онлайн
    Cкачать фильм Тёмные отражения бесплатно
    Тёмные отражения скачать торрент в хорошем качестве
    Тёмные отражения смотреть онлайн бесплатно в хорошем качестве


    Вы не можете начинать темы
    Вы не можете отвечать на сообщения
    Вы не можете редактировать свои сообщения
    Вы не можете удалять свои сообщения
    Вы не можете голосовать в опросах
    Вы не можете прикреплять файлы к сообщениям
    Вы можете скачивать файлы