Ссылка на приватное зеркало всего за 1$. Внимание количество ограничено!!!

iTunes

1+1

iTunes

мы

WEB-DL

1

iTunes

Чернобыль

iTunes

Ральф против интернета

Лицензия

ПШазам

Лицензия

Оно 2

Лицензия

30
pack

Вам бонус

ВАЖНО

!!Акция!!

Alien_RageХит недели

RePack

Resident Evil 21

ИГРА 18+

pack

RePack

jed

!!Акция!!

Alien_Rage

RePack

fifa19

RePack

Assassins Creed: Odyssey

RePack

NEED FOR SPEED™ PAYBACK

3 сезон

9 сезон

Бесстыжие 9 сезон

Все сериалы

все сериалы на PB.wtf

RePack

FAR CRY 5
Ребята, катастрофически не хватает 1900р. для оплаты серверов за Октябрь (всвязи с блокировками трафик упал в 3 раза), 1-2р., выручайте.
  

Альфа / Alpha (Альберт Хьюз) [2018, драма, приключения, семейный, WEB-DLRip] MVO [iTunes] pb.wtf

Альфа через торрент pb.wtf

Раздают: 2 [ 0 KB/s ]
Размер: 749 MB | Добавлен: 1 год 1 мес. назад | Торрент скачан:729 раз
Скачать  

26-10-2018 04:22 Альфа Скачать торрент  

Альфа / Alpha
Год выпуска: 2018
Страна: США
Жанр: драма, приключения, семейный
Продолжительность: 01:36:30
Перевод: Профессиональный (многоголосый) | iTunes
Субтитры: Русские (форсированные)

Режиссер: Альберт Хьюз

rating

В ролях:

Коди Смит-МакФи, Наташа Мальте, Леонор Варела, Йоуханнес Хёйкьюр Йоуханнессон, Йенс Хультен, Мерседес Де Ла Зерда, Прия Раджаратнам, Спенсер Богерт, Патрик Флэнеган, Майкл Круз Даль

Описание:

20 000 лет назад Земля была холодным и неуютным местом, в котором смерть подстерегала человека на каждом шагу, а жизнь зависела от того, удалось ли загнать добычу или нет. Молодой охотник из племени, которое по уровню жизни и культуры было одним из самых развитых на планете, оказывается один на один с враждебным миром, полным смертельных опасностей. Ему предстоит заглянуть в лицо своим страхам и найти дорогу домой. И возможно, от исхода его путешествия зависит судьба всего человечества.

Качество: WEB-DLRip
Формат: AVI

Видео: XviD build 73, 688x288 (2.40:1), 25.000 fps, 883 Kbps (0.186 bit/pixel)
Аудио: 48.0 kHz, AC3, 2/0 ch, 192 kbps
скриншот  скриншот  скриншот  скриншот  

General
Complete name : D:RazdachiAlpha.2018.XviD.745Mb.WEB-DLRip.GeneralFilm.avi
Format : AVI
Format/Info : Audio Video Interleave
File size : 749 MiB
Duration : 1 h 36 min
Overall bit rate : 1 085 kb/s
Writing application : VirtualDubMod 1.5.10.3 | www.virtualdub-fr.org || (build 2550/release)
Writing library : VirtualDubMod build 2550/release

Video
ID : 0
Format : MPEG-4 Visual
Format profile : Advanced Simple@L5
Format settings, BVOP : 1
Format settings, QPel : No
Format settings, GMC : No warppoints
Format settings, Matrix : Custom
Codec ID : XVID
Codec ID/Hint : XviD
Duration : 1 h 36 min
Bit rate : 883 kb/s
Width : 688 pixels
Height : 288 pixels
Display aspect ratio : 2.40:1
Frame rate : 23.976 (24000/1001) FPS
Color space : YUV
Chroma subsampling : 4:2:0
Bit depth : 8 bits
Scan type : Progressive
Compression mode : Lossy
Bits/(Pixel*Frame) : 0.186
Stream size : 610 MiB (81%)
Writing library : XviD 73

Audio
ID : 1
Format : AC-3
Format/Info : Audio Coding 3
Format settings, Endianness : Big
Codec ID : 2000
Duration : 1 h 36 min
Bit rate mode : Constant
Bit rate : 192 kb/s
Channel(s) : 2 channels
Channel positions : Front: L R
Sampling rate : 48.0 kHz
Frame rate : 31.250 FPS (1536 SPF)
Bit depth : 16 bits
Compression mode : Lossy
Stream size : 133 MiB (18%)
Alignment : Split accross interleaves
Interleave, duration : 42 ms (1.00 video frame)
Interleave, preload duratio : 500 ms
Service kind : Complete Main
pb.wtf



Скачать Альфа через торрент http://img11.lostpic.net/2018/10/24/cbef5410017475c6f6badd3bf059f5be.jpg Скачать фильм Альфа через торрент бесплантно в хорошем качестве Описание: 20 000 лет назад Земля была холодным и неуютным местом, в котором смерть подстерегала человека на каждом шагу, а жизнь зависела ... 9.9 10 23
Info! Золотая раздача, скачанное не засчитывается.
Торрент: Зарегистрирован [2018-10-26 04:22] · скачан: 729 раз
Статус: √ проверено
Размер: 749 MB
Как cкачать? Как скачать Альфа через торрент | qTorrent

% Раздел Тема Автор DL S | L
Фильмы (Blu-ray, BD-Remux, HDDVD) [ 17.65 GB ] Альфа / Alpha [2018 BDRemux 1080p] MVO [] sheker187 Скачать
1 | 0
Ultra HD (UHD: 2K, 4K, 8K) — видео сверхвысокой чёткости [ 15.27 GB ] Альфа / Alpha [2018 UHD WEBRip 2160p] MVO [] bober100 Скачать
2 | 0
Фильмы 2018 [DVDrip, WEB-DLRip, HDrip] (DUB, MVO) [ 1.46 GB ] Альфа / Alpha [2018 BDRip] MVO [] Twi7ter Скачать
6 | 0
Зарубежные сериалы [ 45.22 GB ] Люди Альфа / Alphas / Сезон: 2 / Серии: 1-13 из 13 [2012 WEB-DL 1080p] [AMZN] MVO [LostFilm] bober100 Скачать
1 | 0
Зарубежные сериалы [ 40.45 GB ] Люди Альфа / Alphas / Сезон: 1 / Серии: 1-11 из 11 [2011 WEB-DL 1080p] [AMZN] MVO [LostFilm] bober100 Скачать
1 | 0
Фильмы [HD 720p, 1080p] (Хороший звук DUB, MVO) [ 9.89 GB ] Альфа / Alpha [2018 BDRip 1080p] MVO [] sheker187 Скачать
2 | 0
Фильмы 2018 [DVDrip, WEB-DLRip, HDrip] (DUB, MVO) [ 2.24 GB ] Альфа / Alpha [2018 BDRip-AVC] MVO [] + DUB - ExKinoRay Enigma2010 Скачать
3 | 0


Последний раз редактировалось: bober100 (2018-10-27 08:41), всего редактировалось 2 раз(а)

28-11-2019 20:33  

Отключить всю рекламу на сайте

26-10-2018 14:23 Альфа Скачать торрент  

никакой тут не дубляж а многоголоскаpb.wtf



    Дорогой пользователь! Огромная просьба, поблагодарите релизера, оцените раздачу и оставьте свои комментарий, если Вы скачали Альфа через торрент бесплатно! Внесите свою лепту в развитие PiratBit!
    Комментировать посты могут только пользователи прошедшие не сложную регистрацию
    Показать сообщения:    

    Альфа через торрент
    Скачать бесплатно Альфа
    Альфа скачать торрент
    Альфа смотреть онлайн
    Cкачать фильм Альфа бесплатно
    Альфа скачать торрент в хорошем качестве
    Альфа смотреть онлайн бесплатно в хорошем качестве


    Вы не можете начинать темы
    Вы не можете отвечать на сообщения
    Вы не можете редактировать свои сообщения
    Вы не можете удалять свои сообщения
    Вы не можете голосовать в опросах
    Вы не можете прикреплять файлы к сообщениям
    Вы можете скачивать файлы