Ссылка на приватное зеркало всего за 1$. Внимание количество ограничено!!!

OK

1+1

iTunes

мы

OK

1

WEB-DLRip

Джокер

Пифагор

Ведьмак / The Witcher сериал

Лицензия

ПШазам

ОК

Оно 2

iTunes

30
pack

Вам бонус

ВАЖНО

!!Акция!!

Alien_RageХит недели

RePack

Resident Evil 21

ИГРА 18+

pack

RePack

jed

!!Акция!!

Alien_Rage

RePack

fifa19

RePack

Assassins Creed: Odyssey

RePack

NEED FOR SPEED™ PAYBACK

4 сезон

9 сезон

Бесстыжие 9 сезон

Все сериалы

все сериалы на PB.wtf

RePack

FAR CRY 5
  

Каратель / The Punished (Рене Перез) [2018, Ужасы, WEB-DL 720p] MVO ["Синема УС"] pb.wtf

Каратель через торрент pb.wtf

Размер: 3.27 GB | Добавлен: 1 год 2 мес. назад | Торрент скачан:91 раз
Скачать  

26-10-2018 06:47 Каратель Скачать торрент  

Каратель / The PunishedГод выпуска: 2018
Страна: США
Жанр: Ужасы
Продолжительность: 01:30:15
Перевод: Любительский (многоголосый) | "Синема УС"
Субтитры: отсутствуют

Режиссер: Рене Перез

rating

В ролях:

Лиза Мерфи Коллинз, Николь Старк

Описание:

Вольфганг профессиональный наемник, которого наняла состоятельная женщина, чтобы отомстить за своего внука. Но когда он встречает маленькую девочку-сироту и местного экскурсовода, он разрывается между привычными для него деньгами за выполненную работу, и вершением справделивости для невинных людей.

Качество: WEB-DL 720p
Формат: MKV

Видео: h.264,4 801 kb/s, 1280x720
Аудио#1: Русский, (AC3, 2 ch, 384 Кбит/с)
скриншот  скриншот  скриншот  

Общее
Уникальный идентификатор : 226671801755909858052554795544919895188 (0xAA8766AB8A37F871AFECDDF31B7B6C94)
Полное имя : D:\The.Punished.2O18.P.WEB-DL.72Op_KOSHARA.mkv
Формат : Matroska
Версия формата : Version 2
Размер файла : 3,27 Гбайт
Продолжительность : 1 ч. 30 м.
Режим общего битрейта : Переменный
Общий поток : 5187 Кбит/сек
Дата кодирования : UTC 2018-10-25 14:14:06
Программа кодирования : mkvmerge v8.3.0 ('Over the Horizon') 64bit
Библиотека кодирования : libebml v1.3.1 + libmatroska v1.4.2

Видео
Идентификатор : 1
Формат : AVC
Формат/Информация : Advanced Video Codec
Профиль формата : High@L4.1
Параметр CABAC формата : Да
Параметр RefFrames формата : 4 кадра
Идентификатор кодека : V_MPEG4/ISO/AVC
Продолжительность : 1 ч. 30 м.
Вид битрейта : Переменный
Битрейт : 4800 Кбит/сек
Максимальный битрейт : 5500 Кбит/сек
Ширина : 1280 пикселей
Высота : 720 пикселей
Соотношение сторон : 16:9
Режим частоты кадров : Постоянный
Частота кадров : 23,976 (24000/1001) кадра/сек
Стандарт вещания : Component
Цветовое пространство : YUV
Субдискретизация насыщенности : 4:2:0
Битовая глубина : 8 бит
Тип развёртки : Прогрессивная
Бит/(Пиксели*Кадры) : 0.213
Размер потока : 2,96 Гбайт (91%)
Default : Да
Forced : Нет
Цветовой диапазон : Limited
Основные цвета : BT.709
Характеристики трансфера : BT.709
Коэффициенты матрицы : BT.709

Аудио
Идентификатор : 2
Формат : AC-3
Формат/Информация : Audio Coding 3
Расширение режима : CM (complete main)
Параметр Endianness формата : Big
Идентификатор кодека : A_AC3
Продолжительность : 1 ч. 30 м.
Вид битрейта : Постоянный
Битрейт : 384 Кбит/сек
Каналы : 2 канала
Расположение каналов : Front: L R
Частота : 48,0 КГц
Частота кадров : 31,250 кадров/сек (1536 spf)
Метод сжатия : С потерями
Размер потока : 248 Мбайт (7%)
Default : Да
Forced : Нет

pb.wtf



Скачать Каратель через торрент https://d.radikal.ru/d15/1810/bc/371f37184bf9.jpg Скачать фильм Каратель через торрент бесплантно в хорошем качестве Описание: Вольфганг наемник, которого наняла состоятельная женщина, чтобы отомстить за своего внука. Но когда он встречает ... 10 10 6
Торрент: Зарегистрирован [2018-10-26 06:47] · скачан: 91 раз
Статус: T временная
Размер: 3.27 GB
Как cкачать? Как скачать Каратель через торрент | qTorrent

% Раздел Тема Автор DL S | L
Зарубежные сериалы [ 14.6 GB ] Каратель / The Punisher / Сезон: 2 / Серии: 1-13 из 13 [2019 WEB-DL 720p] [DVO] killermax2013 Скачать
1 | 0
Зарубежные сериалы [ 29.1 GB ] Каратель / The Punisher / Сезон: 2 / Серии: 1-13 из 13 [2019 WEBRip 1080p] [MVO] killermax2013 Скачать
1 | 0
Зарубежные сериалы [ 12.44 GB ] Каратель / The Punisher / Сезон: 2 / Серии: 1-13 из 13 [2019 WEB-DL 720p] MVO [NewStudio] bober100 Скачать
2 | 0
Зарубежные сериалы [ 23.53 GB ] Каратель / The Punisher / Сезон: 2 / Серии: 1-13 из 13 [2019 WEBRip 1080p] [MVO] killermax2013 Скачать
1 | 0
Зарубежные сериалы [ 12.14 GB ] Каратель / The Punisher / Сезон: 2 / Серии: 1-13 из 13 [2019 WEBRip 720p] MVO [Baibako] bober100 Скачать
1 | 0
Зарубежные сериалы [ 23.29 GB ] Каратель / The Punisher / Сезон: 2 / Серии: 1-13 из 13 [2019 WEB-DL 1080p] MVO [Jaskier] bober100 Скачать
2 | 0
Зарубежные сериалы [ 12.19 GB ] Каратель / The Punisher / Сезон: 2 / Серии: 1-13 из 13 [2019 WEB-DL 720p] MVO [Jaskier] bober100 Скачать
1 | 0

28-11-2019 20:33  

Отключить всю рекламу на сайте

26-10-2018 09:03 Каратель Скачать торрент  

Что это? Как это?pb.wtf



26-10-2018 10:15 Каратель Скачать торрент  

шлак .не вздумайте это смотреть!!!!pb.wtf



26-10-2018 12:03 Каратель Скачать торрент  

это не каратель,это punisheD а не punisheR!!!!!

kpuctaluk писал(а):

шлак .не вздумайте это смотреть!!!!

это не каратель,это punisheD а не punisheR!!!!!pb.wtf



26-10-2018 19:22 Каратель Скачать торрент  

Наши локализаторы как всегда на высоте)pb.wtf



27-10-2018 14:48 Каратель Скачать торрент  

про крымского парня что ли ??? pb.wtf



28-10-2018 10:44 Каратель Скачать торрент  

надеюсь каратель не на 3м скине pb.wtf



28-10-2018 11:35 Каратель Скачать торрент  

Посмотрите на фильмографию режиссера и подумайте стоит ли это смотреть)pb.wtf



    Дорогой пользователь! Огромная просьба, поблагодарите релизера, оцените раздачу и оставьте свои комментарий, если Вы скачали Каратель через торрент бесплатно! Внесите свою лепту в развитие PiratBit!
    Комментировать посты могут только пользователи прошедшие не сложную регистрацию
    Показать сообщения:    

    Каратель через торрент
    Скачать бесплатно Каратель
    Каратель скачать торрент
    Каратель смотреть онлайн
    Cкачать фильм Каратель бесплатно
    Каратель скачать торрент в хорошем качестве
    Каратель смотреть онлайн бесплатно в хорошем качестве


    Вы не можете начинать темы
    Вы не можете отвечать на сообщения
    Вы не можете редактировать свои сообщения
    Вы не можете удалять свои сообщения
    Вы не можете голосовать в опросах
    Вы не можете прикреплять файлы к сообщениям
    Вы можете скачивать файлы