новый адрес пиратбит piratbit
Мега распродажа FORZA HORIZON 4 ULTIMATE+ВСЕ DLC+ОНЛАЙН всего за 499р. 349 руб. (супер цена). Внимание количество ограничено!!!

iTunes

1+1

iTunes

мы

iTunes

1

iTunes

Чернобыль

iTunes

Ральф против интернета

Лицензия

ПШазам

Лицензия

Игра престолов

Лицензия

30
pack

ВАЖНО

!!Акция!!

Alien_RageХит недели

RePack

Resident Evil 21

ИГРА 18+

pack

RePack

Metro:Exodus

!!Акция!!

Alien_Rage

RePack

fifa19

RePack

Assassins Creed: Odyssey

RePack

NEED FOR SPEED™ PAYBACK

3 сезон

9 сезон

Бесстыжие 9 сезон

Все сериалы

все сериалы на PB.wtf

RePack

FAR CRY 5
Ребята, катастрофически не хватает 1900р. для оплаты серверов за Октябрь (всвязи с блокировками трафик упал в 3 раза), 1-2р., выручайте.
  

Последние залпы (Леон Сааков) [1961, СССР, драма,военный, SATRip от AVP Studio] pb.wtf

Последние залпы через торрент pb.wtf

Размер: 745 MB | Добавлен: 1 год назад | Торрент скачан:17 раз
Скачать  

26-10-2018 09:04 Последние залпы Скачать торрент  

Последние залпы
Страна: СССР
Производство: Мосфильм

Жанр: драма,военный
Год выпуска: 1961
Продолжительность: 01:30:54

Перевод: Не требуется
Cубтитры: нет
Оригинальная аудиодорожка: русский

Режиссер: Леон Сааков

В ролях:
Юрий Назаров, Валентина Куценко, Олег Лозовский, Владимир Липпарт, Александр Стрельников, Юрий Киреев, Владимир Голуб, Михаил Козаков, Борис Кожухов, Иван Бондарь, Даниил Нетребин...
Об актёрах подробней

Описание:
По одноименной повести Юрия Бондарева.
1945 год. В Карпатах у самых границ с Чехословакией идут последние бои. На этом участке фронта уже никто не ждет больших военных операций. Впереди мирная жизнь... Немецкая группировка, выйдя из кольца окружения, стремительно направляется к городу Марице, куда только-что вошли словацкие партизаны. Небольшая артиллерийская батарея капитана Новикова (Юрий Назаров) получает задание во что бы то ни стало задержать немецкие танки...

Исходник: DVB
Качество видео: SATRip
Формат видео: AVI

Видео: 704x352 (2,000:1), 25,000 кадров/сек, XviD ~ 945 kbps avg, 0.153 bit/pixel
Аудио: 48 kHz, Dolby Digital AC3 2.0, 192 kbps

Раздача от:
Общее
Полное имя : Poslednie.zalpy.1961.SATRip_[New-team]_by_AVP_Studio.avi
Формат : AVI
Формат/Информация : Audio Video Interleave
Размер файла : 745 Мбайт
Продолжительность : 1 ч. 30 м.
Общий поток : 1147 Кбит/сек
Программа кодирования : VirtualDubMod 1.5.10.3 | www.virtualdub-fr.org || (build 2550/release)
Библиотека кодирования : VirtualDubMod build 2550/release

Видео
Идентификатор : 0
Формат : MPEG-4 Visual
Профиль формата : Advanced Simple@L5
Настройки формата : BVOP1 / Custom Matrix
Параметр BVOP формата : 1
Параметр QPel формата : Нет
Параметр GMC формата : Без точки перехода
Параметр матрицы формата : Выборочная
Идентификатор кодека : XVID
Идентификатор кодека/Подсказка : XviD
Продолжительность : 1 ч. 30 м.
Битрейт : 945 Кбит/сек
Ширина : 704 пикселя
Высота : 352 пикселя
Соотношение сторон : 2,000
Частота кадров : 25,000 кадров/сек
Цветовое пространство : YUV
Субдискретизация насыщенности : 4:2:0
Битовая глубина : 8 бит
Тип развёртки : Прогрессивная
Метод сжатия : С потерями
Бит/(Пиксели*Кадры) : 0.153
Размер потока : 614 Мбайт (82%)
Библиотека кодирования : XviD 73

Аудио
Идентификатор : 1
Формат : AC-3
Формат/Информация : Audio Coding 3
Коммерческое название : Dolby Digital
Идентификатор кодека : 2000
Продолжительность : 1 ч. 30 м.
Вид битрейта : Постоянный
Битрейт : 192 Кбит/сек
Каналы : 2 канала
Channel layout : L R
Частота : 48,0 КГц
Частота кадров : 31,250 кадров/сек (1536 SPF)
Битовая глубина : 16 бит
Метод сжатия : С потерями
Размер потока : 125 Мбайт (17%)
Выравнивание : Разделение по промежуткам
Продолжительность промежутка : 40 мс. (1,00 видеокадр)
Время предзагрузки промежутка : 500 мс
pb.wtf



Скачать Последние залпы через торрент http://picplus.ru/img/1810/26/17a3e367.png Скачать фильм Последние залпы через торрент бесплантно в хорошем качестве Описание:По одноименной повести Юрия Бондарева.1945 год. В Карпатах у самых границ с Чехословакией идут последние бои. На этом участке ... 9.5 10 2
Info! Золотая раздача, скачанное не засчитывается.
Торрент: Зарегистрирован [2018-10-26 09:04] · скачан: 17 раз
Статус: √ проверено
Размер: 745 MB
Как cкачать? Как скачать Последние залпы через торрент | qTorrent

% Раздел Тема Автор DL S | L
Кино СССР [ 1.09 GB ] Последние залпы [1961 СССР военный SATRip-AVC от AVP Studio] AVP Studio Скачать
2 | 0


>> Регистрируемся здесь <<






Отзывы и комментарии о схеме читаем и пишем здесь: ---> Отзывы и комментарии о схеме

Новые благодарочки в телеграм довольных пользователей:
скриншот   скриншот   скриншот   скриншот   скриншот
    Дорогой пользователь! Огромная просьба, поблагодарите релизера, оцените раздачу и оставьте свои комментарий, если Вы скачали Последние залпы через торрент бесплатно! Внесите свою лепту в развитие PiratBit!
    Комментировать посты могут только пользователи прошедшие не сложную регистрацию
    Показать сообщения:    

    Последние залпы через торрент
    Скачать бесплатно Последние залпы
    Последние залпы скачать торрент
    Последние залпы смотреть онлайн
    Cкачать фильм Последние залпы бесплатно
    Последние залпы скачать торрент в хорошем качестве
    Последние залпы смотреть онлайн бесплатно в хорошем качестве


    Вы не можете начинать темы
    Вы не можете отвечать на сообщения
    Вы не можете редактировать свои сообщения
    Вы не можете удалять свои сообщения
    Вы не можете голосовать в опросах
    Вы не можете прикреплять файлы к сообщениям
    Вы можете скачивать файлы